+ ShareSpark.net »  :::: Dubbed Zone (Dubbed English in Hindi) » English Movies Dubbed in Hindi » High Resolution Movies
|- Enemy At The Gates (2001) BDRip 1080p [Hindi ORG DD 2.0-Eng 5.1] Tariq Qureshi


Enemy At The Gates (2001) BDRip 1080p [Hindi ORG DD 2.0-Eng 5.1] Tariq Qureshi

0 Members and 1 Guest are viewing this topic.

July 29, 2014, 10:28:08 PM
  • •?((¯°·._.• [email protected]ţɨɲ[email protected]ţɨɲ •._.·°¯))؟•
  • Elite Mod (Inactive)
  • Legend Member
  • ****
  • Topic Author
  • Thank You: 1599
  • Reputation: 783
  • Activity:
    0%
  • Posts: 2759
  • Topics: 1761
  • Join Date: Feb 2014
  • •]••´º´•» gσσ∂ вує «•´º´••[•
Enemy At The Gates (2001) BDRip 1080p Dual Audio [Hindi ORG DD 2.0-Eng 5.1] Tariq Qureshi



============================================================================

:GENERAL INFO:
Format : Matroska
Format : Matroska
Format version : Version 4 / Version 2
File size : 3.55 GiB
Duration : 2h 11mn
Overall bit rate : 3 872 Kbps
Movie name : Enemy At The Gates (2001) BDRip 1080p Dual Audio [Hindi ORG DD 2.0-Eng 5.1] Tariq Qureshi

============================================================================

:VIDEO INFO:
ID : 1
Format : AVC
Format/Info : Advanced Video Codec
Format profile : [email protected]
Format settings, CABAC : Yes
Format settings, ReFrames : 5 frames
Codec ID : V_MPEG4/ISO/AVC
Duration : 2h 11mn
Bit rate : 3 200 Kbps
Width : 1 920 pixels
Height : 816 pixels
Display aspect ratio : 2.35:1
Frame rate mode : Constant
Frame rate : 23.976 fps
Stream size : 2.86 GiB (81%)
Writing library : x264 core 142 r2431 ac76440
DURATION : 02:11:05.900000000
Language : English
Default : Yes
Forced : No

============================================================================

:AUDIO 1:
ID : 2
Format : AC-3
Format/Info : Audio Coding 3
Format profile : Dolby Digital
Mode extension : CM (complete main)
Format settings, Endianness : Big
Codec ID : A_AC3
Duration : 2h 11mn
Bit rate mode : Constant
Bit rate : 224 Kbps
Channel(s) : 2 channels
Channel positions : Front: L R
Sampling rate : 48.0 KHz
Bit depth : 16 bits
Compression mode : Lossy
Stream size : 210 MiB (6%)
Title : ORG DD 2.0 Tariq Qureshi
Language : Hindi
Default : Yes
Forced : No

============================================================================

:AUDIO 2:
ID : 3
Format : AC-3
Format/Info : Audio Coding 3
Mode extension : CM (complete main)
Format settings, Endianness : Big
Codec ID : A_AC3
Duration : 2h 11mn
Bit rate mode : Constant
Bit rate : 448 Kbps
Channel(s) : 6 channels
Channel positions : Front: L C R, Side: L R, LFE
Sampling rate : 48.0 KHz
Bit depth : 16 bits
Compression mode : Lossy
Stream size : 420 MiB (12%)
Title : DD 5.1 Tariq Qureshi
Language : English
Default : No
Forced : No

============================================================================

:SUBTITLE:
Text
ID : 4
Format : UTF-8
Codec ID : S_TEXT/UTF8
Codec ID/Info : UTF-8 Plain Text
Title : Tariq Qureshi
Language : English
Default : Yes
Forced : No

============================================================================


SCREEN SHOTS















============================================================================


For More Join Us On Facebook
TQMovies


:::DON'T FORGET TO SAY THANKS:::



[email protected]




Full MOV3 Link!!!

















Share this topic on FacebookShare this topic on GoogleShare this topic on MySpaceShare this topic on TwitterShare this topic on Yahoo

« Last Edit: July 29, 2014, 11:10:22 PM by jatin.jatin »


Thanks given by:


Tags: Tariq Qureshi 
 

Related Topics




Back to top