+ ShareSpark.net »  :::: Dubbed Zone (Dubbed English in Hindi) » English Movies Dubbed in Hindi » High Resolution Movies
|- Friday the 13th (1980) UNCUT 1080p BluRay x264 Dual [Eng 5.1 + Hindi 2.0] - TBI

Weekend Pay And Play 50% Off

Friday the 13th (1980) UNCUT 1080p BluRay x264 Dual [Eng 5.1 + Hindi 2.0] - TBI

0 Members and 1 Guest are viewing this topic.

August 04, 2014, 03:05:31 PM
  • Admin
  • Legend Member
  • ****
  • Topic Author
  • Thank You: 4172
  • Reputation: 2276
  • Activity:
    0%
  • Country: in
  • Posts: 4776
  • Topics: 2539
  • Join Date: May 2013
  • ShareSpark Member
Friday the 13th (1980) UNCUT 1080p BluRay x264 Dual Audio [English 5.1 + Hindi 2.0] - TBI





:info:
Release Info:
Quote:
Release Name: Friday the 13th (1980) UNCUT
Size: 1.63 GiB
Video: AVC | 1920 x 1080 | 2000 Kbps | 23.976 FPS | 16:9
Audio 1: English | 224 Kbps | 6ch | AC3
Audio 2: Hindi | 224 Kbps | 2ch | AC3
Runtime: 01h 35mn 27sec
Subtitles: No
Source: 1080p x264 TrueHD 5.1 - Waldek

IMDB Info:
Quote:
Name: Friday the 13th (1980)
Genre: Horror
IMDB:

IMDB Rating: 6.5/10 from 62,709 users
Director: Sean S. Cunningham
Writers: Victor Miller (screenplay), Sean S. Cunningham (story)
Cast: Betsy Palmer, Adrienne King, Jeannine Taylor
Plot: Camp counselors are stalked and murdered by an unknown assailant while trying to
reopen a summer camp that was the site of a child's drowning.
Quote:
Original Hindi 2.0 Audio From Own VCD

Mediainfo
General
Complete name : Friday the 13th (1980) UNCUT.mp4
Format : MPEG-4
Format profile : Base Media
Codec ID : isom
File size : 1.63 GiB
Duration : 1h 35mn
Overall bit rate : 2 449 Kbps

Video
ID : 1
Format : AVC
Format/Info : Advanced Video Codec
Format profile : [email protected]
Format settings, CABAC : Yes
Format settings, ReFrames : 4 frames
Codec ID : avc1
Codec ID/Info : Advanced Video Coding
Duration : 1h 35mn
Bit rate : 2 000 Kbps
Maximum bit rate : 9 430 Kbps
Width : 1 920 pixels
Height : 1 080 pixels
Display aspect ratio : 16:9
Frame rate mode : Constant
Frame rate : 23.976 fps
Color space : YUV
Chroma subsampling : 4:2:0
Bit depth : 8 bits
Scan type : Progressive
Bits/(Pixel*Frame) : 0.040
Stream size : 1.33 GiB (82%)
Writing library : x264 core 130 r2273 b3065e6
Encoding settings : cabac=1 / ref=4 / deblock=1:-1:-1 / analyse=0x3:0x113 / me=umh / subme=9 / psy=1 / psy_rd=1.00:0.00 / mixed_ref=1 / me_range=16 / chroma_me=1 / trellis=1 / 8x8dct=1 / cqm=0 / deadzone=21,11 / fast_pskip=1 / chroma_qp_offset=-2 / threads=6 / lookahead_threads=1 / sliced_threads=0 / nr=0 / decimate=1 / interlaced=0 / bluray_compat=0 / constrained_intra=0 / bframes=4 / b_pyramid=2 / b_adapt=1 / b_bias=0 / direct=1 / weightb=1 / open_gop=0 / weightp=2 / keyint=240 / keyint_min=24 / scenecut=40 / intra_refresh=0 / rc_lookahead=40 / rc=2pass / mbtree=1 / bitrate=2000 / ratetol=1.0 / qcomp=0.60 / qpmin=0 / qpmax=69 / qpstep=4 / cplxblur=20.0 / qblur=0.5 / vbv_maxrate=62500 / vbv_bufsize=78125 / nal_hrd=none / ip_ratio=1.40 / aq=1:1.00
Color primaries : BT.709
Transfer characteristics : BT.709
Matrix coefficients : BT.709

Audio #1
ID : 2
Format : AC-3
Format/Info : Audio Coding 3
Mode extension : CM (complete main)
Format settings, Endianness : Big
Codec ID : ac-3
Duration : 1h 35mn
Bit rate mode : Constant
Bit rate : 224 Kbps
Channel count : 6 channels
Channel positions : Front: L C R, Side: L R, LFE
Sampling rate : 48.0 KHz
Bit depth : 16 bits
Compression mode : Lossy
Stream size : 153 MiB (9%)
Language : English

Audio #2
ID : 3
Format : AC-3
Format/Info : Audio Coding 3
Mode extension : CM (complete main)
Format settings, Endianness : Big
Codec ID : ac-3
Duration : 1h 35mn
Bit rate mode : Constant
Bit rate : 224 Kbps
Channel count : 2 channels
Channel positions : Front: L R
Sampling rate : 48.0 KHz
Bit depth : 16 bits
Compression mode : Lossy
Stream size : 153 MiB (9%)
Language : Hindi


:ss:






:download:

:::::::  SAMPLE  :::::::



Full Movie













[/size]


DON'T FORGET TO HIT THANX AND +REPUTE, IF.. YOU LIKE MY POST

Share this topic on FacebookShare this topic on GoogleShare this topic on MySpaceShare this topic on TwitterShare this topic on Yahoo



Thanks given by:


August 04, 2014, 03:08:53 PM
Reply #1

Tags:
 

Related Topics




Back to top