+ ShareSpark.net »  :::: Dubbed Zone (Dubbed English in Hindi) » English Movies Dubbed in Hindi » High Resolution Movies
|- Noah (2014) BDRip 1080p Dual Audio [ Hindi ORG DD 5.1-Eng 5.1] TQMovies

Weekend Pay And Play 50% Off

Noah (2014) BDRip 1080p Dual Audio [ Hindi ORG DD 5.1-Eng 5.1] TQMovies

0 Members and 1 Guest are viewing this topic.

August 08, 2014, 10:23:54 AM
  • •?((¯°·._.• [email protected]ţɨɲ[email protected]ţɨɲ •._.·°¯))؟•
  • Elite Mod (Inactive)
  • Legend Member
  • ****
  • Topic Author
  • Thank You: 1600
  • Reputation: 783
  • Activity:
    0%
  • Posts: 2758
  • Topics: 1761
  • Join Date: Feb 2014
  • •]••´º´•» gσσ∂ вує «•´º´••[•


:RELEASE TITLE:

Noah (2014) BDRip 1080p Dual Audio [ Hindi ORG DD 5.1-Eng 5.1] TQMovies.mkv
============================================================================




============================================================================
VERY BIG THANKS TO ~INVINCIBLE~ FOR HINDI AUDIO
============================================================================
THANKS TO SAM,OZIMAN, AND ALL ADMINS,MOD
============================================================================

:GENERAL INFO:

Format : Matroska
Format version : Version 4 / Version 2
File size : 4.20 GiB
Duration : 2h 12mn
Overall bit rate : 4 546 Kbps
Movie name : Noah (2014) BDRip 1080p Dual Audio [ Hindi ORG DD 5.1-Eng 5.1] TQMovies.mkv

============================================================================

:VIDEO INFO:
ID : 1
Format : AVC
Format/Info : Advanced Video Codec
Format profile : [email protected]
Format settings, CABAC : Yes
Format settings, ReFrames : 4 frames
Codec ID : V_MPEG4/ISO/AVC
Duration : 2h 12mn
Bit rate : 3 500 Kbps
Width : 1 920 pixels
Height : 1 040 pixels
Display aspect ratio : 1.85:1
Frame rate mode : Constant
Frame rate : 25.000 fps
Original frame rate : 23.976 fps
DURATION : 02:04:15.520000000
Stream size : 3.29 GiB (78%)
Writing library : x264 core 138 r2358 9e941d1
Language : English
Default : Yes
Forced : No

============================================================================

:AUDIO 1:
ID : 2
Format : AC-3
Format/Info : Audio Coding 3
Mode extension : CM (complete main)
Format settings, Endianness : Big
Codec ID : A_AC3
Duration : 2h 12mn
Bit rate mode : Constant
Bit rate : 448 Kbps
Channel(s) : 6 channels
Channel positions : Front: L C R, Side: L R, LFE
Sampling rate : 48.0 KHz
Bit depth : 16 bits
Compression mode : Lossy
Stream size : 424 MiB (10%)
Title : Hindi Org DD 5.1 448Kbps
Language : Hindi
Default : Yes
Forced : No

============================================================================

:AUDIO 2:
ID : 3
Format : AC-3
Format/Info : Audio Coding 3
Mode extension : CM (complete main)
Format settings, Endianness : Big
Codec ID : A_AC3
Duration : 2h 12mn
Bit rate mode : Constant
Bit rate : 448 Kbps
Channel(s) : 6 channels
Channel positions : Front: L C R, Side: L R, LFE
Sampling rate : 48.0 KHz
Bit depth : 16 bits
Compression mode : Lossy
Stream size : 424 MiB (10%)
Title : Eng Org DD 5.1 448Kbps
Language : English
Default : No
Forced : No

============================================================================
:SUBTITLE:
Text
ID : 4
Format : UTF-8
Codec ID : S_TEXT/UTF8
Codec ID/Info : UTF-8 Plain Text
Title : English SRT
Language : English
Default : Yes
Forced : No

============================================================================
SCREEN SHOTS















============================================================================

For More Join Us On Facebook

TQMovies




[email protected]



Full Movie links!!!!!



















[/size]

Share this topic on FacebookShare this topic on GoogleShare this topic on MySpaceShare this topic on TwitterShare this topic on Yahoo

« Last Edit: August 08, 2014, 01:11:52 PM by jatin.jatin »


Thanks given by:


August 08, 2014, 02:51:08 PM
Reply #1
  • Semi Newbie
  • **
  • Thank You: 0
  • Reputation: 0
  • Activity:
    0%
  • Posts: 21
  • Topics: 0
  • Join Date: Aug 2013
  • ShareSpark Member
Finally dual audio hindi for Noah , was waiting for more than 6 months in dual audio Hindi for thia movie   +rep added

 :yahoo:  :clap: :worthy:

August 08, 2014, 06:15:02 PM
Reply #2
  • *****************
  • Head Admin
  • Legend Member
  • *****
  • Thank You: 6542
  • Reputation: 2871
  • Activity:
    100%
  • Country: in
  • Posts: 18611
  • Topics: 10891
  • Join Date: Mar 2012
  • The Time Is Now......

Tags: Tariq Qureshi 
 

Related Topics




Back to top