+ ShareSpark.net »  :::: Bollywood Zone » Bollywood Movies (Original Rips)
|- Ek Villain (2014) - 720p - DVDRip - Hindi - x264 - AC3 - 5.1 - ESubs - TeamTNT


Mastercard 10% Off

Ek Villain (2014) - 720p - DVDRip - Hindi - x264 - AC3 - 5.1 - ESubs - TeamTNT

0 Members and 1 Guest are viewing this topic.

August 13, 2014, 12:05:37 AM
  • Admin
  • Legend Member
  • ****
  • Topic Author
  • Thank You: 3421
  • Reputation: 1214
  • Activity:
    3.2%
  • Posts: 5928
  • Topics: 3331
  • Join Date: Apr 2012
  • No Tears For The Dead
  • Expertises:
  • All Rounder In Each Field
Ek Villain (2014) - 720p - DVDRip - Hindi - x264 - AC3 - 5.1 - ESubs - TeamTNT






IMDB Rating: 6.7/10.0


GENRE: Action | Romance | Thriller


General
Unique ID : 190489291861219099108050905502636030747 (0x8F4EE733669BAF02850A22FA6ACBBB1B)
Complete name : Ek Villain (2014) - 720p - DVDRip - Hindi - x264 - AC3 - 5.1 - ESubs - TeamTNT ExClusive.mkv
Format : Matroska
Format version : Version 4 / Version 2
File size : 969 MiB
Duration : 2h 3mn
Overall bit rate : 1 094 Kbps
Movie name : Ek Villain (2014) - 720p - DVDRip - Hindi - x264 - AC3 - 5.1 - ESubs - TeamTNT ExClusive
Encoded date : UTC 2014-08-12 14:46:34
Writing application : mkvmerge v7.0.0 ('Where We Going') 32bit built on Jun 9 2014 15:08:34
Writing library : libebml v1.3.0 + libmatroska v1.4.1


Video
ID : 1
Format : AVC
Format/Info : Advanced Video Codec
Format profile : [email protected]
Format settings, CABAC : Yes
Format settings, ReFrames : 4 frames
Codec ID : V_MPEG4/ISO/AVC
Duration : 2h 3mn
Bit rate : 900 Kbps
Width : 1 280 pixels
Height : 544 pixels
Display aspect ratio : 2.35:1
Frame rate mode : Constant
Frame rate : 29.970 fps
Color space : YUV
Chroma subsampling : 4:2:0
Bit depth : 8 bits
Scan type : Progressive
Bits/(Pixel*Frame) : 0.043
Stream size : 779 MiB (80%)
Title : [email protected]
Language : Hindi
Default : Yes
Forced : No


Audio
ID : 2
Format : AC-3
Format/Info : Audio Coding 3
Mode extension : CM (complete main)
Format settings, Endianness : Big
Codec ID : A_AC3
Duration : 2h 3mn
Bit rate mode : Constant
Bit rate : 192 Kbps
Channel(s) : 6 channels
Channel positions : Front: L C R, Side: L R, LFE
Sampling rate : 48.0 KHz
Bit depth : 16 bits
Compression mode : Lossy
Stream size : 170 MiB (18%)
Title : [email protected]
Language : Hindi
Default : Yes
Forced : No










 :download:

















Share this topic on FacebookShare this topic on GoogleShare this topic on MySpaceShare this topic on TwitterShare this topic on Yahoo




August 14, 2014, 10:53:22 AM
Reply #1
  • *****************
  • Head Admin
  • Legend Member
  • *****
  • Thank You: 6651
  • Reputation: 2914
  • Activity:
    81.4%
  • Country: in
  • Posts: 18775
  • Topics: 10946
  • Join Date: Mar 2012
  • The Time Is Now......

August 17, 2014, 08:44:54 AM
Reply #2
  • Love You Forever
  • Legend Member
  • ****
  • Thank You: 283
  • Reputation: 155
  • Activity:
    0%
  • Country: us
  • Posts: 2073
  • Topics: 850
  • Join Date: Jun 2013
  • Only Love,,....!!!!!!

August 17, 2014, 12:40:25 PM
Reply #3
  • Hot Member
  • ***
  • Thank You: 23
  • Reputation: 10
  • Activity:
    0%
  • Country: pk
  • Posts: 632
  • Topics: 69
  • Join Date: Sep 2013
  • ShareSpark Member

 

Related Topics





Back to top