+ ShareSpark.net »  :::: Dubbed Zone (Dubbed English in Hindi) » English Movies Dubbed in Hindi » High Resolution Movies
|- The Art Of The Steal 2013 BDRip 1080p Dual Audio [ Hindi 5.1 RM- Eng 5.1] Tariq

Add 1000 Get 100 Back

The Art Of The Steal 2013 BDRip 1080p Dual Audio [ Hindi 5.1 RM- Eng 5.1] Tariq

0 Members and 1 Guest are viewing this topic.

August 18, 2014, 07:51:53 PM
  • •?((¯°·._.• [email protected]ţɨɲ[email protected]ţɨɲ •._.·°¯))؟•
  • Elite Mod (Inactive)
  • Legend Member
  • ****
  • Topic Author
  • Thank You: 1599
  • Reputation: 783
  • Activity:
    0%
  • Posts: 2758
  • Topics: 1761
  • Join Date: Feb 2014
  • •]••´º´•» gσσ∂ вує «•´º´••[•


The Art Of The Steal 2013 BDRip 1080p Dual Audio [ Hindi 5.1 RM- Eng 5.1] Tariq Qureshi



============================================================================

:GENERAL INFO:
Format : Matroska
Format : Matroska
Format version : Version 4 / Version 2
File size : 2.77 GiB
Duration : 1h 30mn
Overall bit rate : 4 396 Kbps
Frontend And Writing Library : megui
Movie name :The Art Of The Steal 2013 BDRip 1080p Dual Audio [ Hindi 5.1 RM- Eng 5.1] Tariq Qureshi.mkv

============================================================================

:VIDEO INFO:
ID : 1
Format : AVC
Format/Info : Advanced Video Codec
Format profile : [email protected]
Format settings, CABAC : Yes
Format settings, ReFrames : 4 frames
Codec ID : V_MPEG4/ISO/AVC
Duration : 1h 30mn
Bit rate : 3 500 Kbps
Width : 1 920 pixels
Height : 1 080 pixels
Display aspect ratio : 16:9
Frame rate mode : Constant
Frame rate : 23.976 fps
Language : English
Default : Yes
Forced : No

============================================================================

:AUDIO 1:
ID : 2
Format : AC-3
Format/Info : Audio Coding 3
Mode extension : CM (complete main)
Format settings, Endianness : Big
Codec ID : A_AC3
Duration : 1h 30mn
Bit rate mode : Constant
Bit rate : 448 Kbps
Channel(s) : 6 channels
Channel positions : Front: L C R, Side: L R, LFE
Sampling rate : 48.0 KHz
Bit depth : 16 bits
Compression mode : Lossy
Stream size : 289 MiB (10%)
Title : 5.1 RM Tariq Qureshi
Language : Hindi
Default : Yes
Forced : No

============================================================================

:AUDIO 2:
ID : 3
Format : AC-3
Format/Info : Audio Coding 3
Mode extension : CM (complete main)
Format settings, Endianness : Big
Codec ID : A_AC3
Duration : 1h 30mn
Bit rate mode : Constant
Bit rate : 448 Kbps
Channel(s) : 6 channels
Channel positions : Front: L C R, Side: L R, LFE
Sampling rate : 48.0 KHz
Bit depth : 16 bits
Compression mode : Lossy
Stream size : 289 MiB (10%)
Title : 448Kbps Tariq Qureshi
Language : English
Default : No
Forced : No

============================================================================

:SUBTITLE:
Text
ID : 4
ID : 4
Format : UTF-8
Codec ID : S_TEXT/UTF8
Codec ID/Info : UTF-8 Plain Text
Title : Tariq Qureshi
Language : English
Default : No
Forced : No
============================================================================









============================================================================
A PAKISTANI URDU DUBBING REMASTER AUDIO BUT IN GOOD QUALITY
============================================================================


[email protected]



Full MOV3 Link!!!











Share this topic on FacebookShare this topic on GoogleShare this topic on MySpaceShare this topic on TwitterShare this topic on Yahoo

« Last Edit: August 18, 2014, 07:52:55 PM by jatin.jatin »



Tags: Tariq Qureshi 
 

Related Topics




Back to top