+ ShareSpark.net »  :::: Dubbed Zone (Dubbed English in Hindi) » English Movies Dubbed in Hindi » High Resolution Movies
|- Air Force One (1997) BDRip 1080p Dual Audio [ Hindi DD 2.0-Eng 5.1] TQMovies

DTH Recharges 20% Back

Air Force One (1997) BDRip 1080p Dual Audio [ Hindi DD 2.0-Eng 5.1] TQMovies

0 Members and 1 Guest are viewing this topic.

August 20, 2014, 10:58:31 AM
  • •?((¯°·._.• [email protected]ţɨɲ[email protected]ţɨɲ •._.·°¯))؟•
  • Elite Mod (Inactive)
  • Legend Member
  • ****
  • Topic Author
  • Thank You: 1599
  • Reputation: 783
  • Activity:
    0%
  • Posts: 2758
  • Topics: 1761
  • Join Date: Feb 2014
  • •]••´º´•» gσσ∂ вує «•´º´••[•


Air Force One (1997) BDRip 1080p Dual Audio [ Hindi DD 2.0-Eng 5.1] TQMovies




============================================================================

:GENERAL INFO:

Format : Matroska
Format version : Version 4 / Version 2
File size : 3.22 GiB
Duration : 2h 4mn
Overall bit rate : 3 705 Kbps
Movie name : Air Force One (1997) BDRip 1080p Dual Audio [ Hindi DD 2.0-Eng 5.1] TQMovies

============================================================================

:VIDEO INFO:
ID : 1
Format : AVC
Format/Info : Advanced Video Codec
Format profile : [email protected]
Format settings, CABAC : Yes
Format settings, ReFrames : 5 frames
Codec ID : V_MPEG4/ISO/AVC
Duration : 2h 4mn
Bit rate : 3 000 Kbps
Width : 1 920 pixels
Height : 800 pixels
Display aspect ratio : 2.40:1
Frame rate mode : Constant
Frame rate : 23.976 fps
Stream size : 2.55 GiB (79%)
Writing library : x264 core 142 r2431 ac76440
DURATION : 02:04:34
Language : English
Default : Yes
Forced : No

============================================================================

:AUDIO 1:
ID : 2
Format : AC-3
Format/Info : Audio Coding 3
Mode extension : CM (complete main)
Format settings, Endianness : Big
Codec ID : A_AC3
Duration : 2h 4mn
Bit rate mode : Constant
Bit rate : 256 Kbps
Channel(s) : 2 channels
Channel positions : Front: L R
Sampling rate : 48.0 KHz
Bit depth : 16 bits
Compression mode : Lossy
Stream size : 228 MiB (7%)
Title : TQMovies
Language : Hindi
Default : Yes
Forced : No
============================================================================
:AUDIO 2:
ID : 3
Format : AC-3
Format/Info : Audio Coding 3
Mode extension : CM (complete main)
Format settings, Endianness : Big
Codec ID : A_AC3
Duration : 2h 4mn
Bit rate mode : Constant
Bit rate : 448 Kbps
Channel(s) : 6 channels
Channel positions : Front: L C R, Side: L R, LFE
Sampling rate : 48.0 KHz
Bit depth : 16 bits
Compression mode : Lossy
Stream size : 399 MiB (12%)
Title : TQMovies
Language : English
Default : No
Forced : No

============================================================================
:SUBTITLE:
Text
ID : 4
Format : UTF-8
Codec ID : S_TEXT/UTF8
Codec ID/Info : UTF-8 Plain Text
Title : TQMovies
Language : English
Default : No
Forced : No


SCREEN SHOTS

============================================================================








============================================================================

For More Join Us On Facebook

TQMovies


[email protected]



Full MOV3 Link!!!









1.5 GB UPTOBOX SPLITT LINKS!!!







1.5 GB CLICKNUPLOAD SPLITT LINKS!!!





Share this topic on FacebookShare this topic on GoogleShare this topic on MySpaceShare this topic on TwitterShare this topic on Yahoo




August 20, 2014, 12:16:52 PM
Reply #1
  • Royal Member
  • ****
  • Thank You: 1
  • Reputation: 5
  • Activity:
    0%
  • Country: bh
  • Posts: 906
  • Topics: 0
  • Join Date: May 2012
  • ShareSpark Member

Tags: Tariq Qureshi 
 

Related Topics




Back to top