+ ShareSpark.net »  :::: Hollywood Zone » Hollywood Movies (Pre Releases)
|- The.Prince.2014.HDRip.XviD.AC3-EVO


Mastercard 10% Off

The.Prince.2014.HDRip.XviD.AC3-EVO

0 Members and 1 Guest are viewing this topic.

August 24, 2014, 10:34:03 AM
  • *****************
  • Head Admin
  • Legend Member
  • *****
  • Topic Author
  • Thank You: 6651
  • Reputation: 2914
  • Activity:
    81.6%
  • Country: in
  • Posts: 18775
  • Topics: 10946
  • Join Date: Mar 2012
  • The Time Is Now......


RELEASE: The.Prince.2014.HDRip.XviD.AC3-EVO                                             
SOURCE: ETRG                                               
ViDEO: 1795 kbps XviD               
RESOLUTiON: 720x304                           
RUNTiME: 1h30m0sec     
SUBTiTLES: N/A                               
AUDiO: 384 CBR AC-3       
LANGUAGE: ENGLiSH                                   
GREETS: Srkfan & AQOS
NOTES: Enjoy.



Format                                   : AVI
Format/Info                              : Audio Video Interleave
File size                                : 1.39 GiB
Duration                                 : 1h 30mn
Overall bit rate                         : 2 188 Kbps
Writing library                          : VirtualDub build 32593/release

Video
ID                                       : 0
Format                                   : MPEG-4 Visual
Format profile                           : Advanced [email protected]
Format settings, BVOP                    : 2
Format settings, QPel                    : No
Format settings, GMC                     : No warppoints
Format settings, Matrix                  : Default (H.263)
Muxing mode                              : Packed bitstream
Codec ID                                 : XVID
Codec ID/Hint                            : XviD
Duration                                 : 1h 30mn
Bit rate                                 : 1 795 Kbps
Width                                    : 720 pixels
Height                                   : 304 pixels
Display aspect ratio                     : 2.35:1
Frame rate                               : 23.976 fps
Color space                              : YUV
Chroma subsampling                       : 4:2:0
Bit depth                                : 8 bits
Scan type                                : Progressive
Compression mode                         : Lossy
Bits/(Pixel*Frame)                       : 0.342
Stream size                              : 1.14 GiB (82%)
Writing library                          : XviD 64

Audio
ID                                       : 1
Format                                   : AC-3
Format/Info                              : Audio Coding 3
Mode extension                           : CM (complete main)
Format settings, Endianness              : Big
Codec ID                                 : 2000
Duration                                 : 1h 30mn
Bit rate mode                            : Constant
Bit rate                                 : 384 Kbps
Channel(s)                               : 6 channels
Channel positions                        : Front: L C R, Side: L R, LFE
Sampling rate                            : 48.0 KHz
Bit depth                                : 16 bits
Compression mode                         : Lossy
Stream size                              : 249 MiB (18%)
Alignment                                : Aligned on interleaves
Interleave, duration                     : 42 ms (1.00 video frame)
Interleave, preload duration             : 512 ms
















Share this topic on FacebookShare this topic on GoogleShare this topic on MySpaceShare this topic on TwitterShare this topic on Yahoo




Tags:
 

Related Topics

  Subject / Started by Replies Last post
0 Replies
414 Views
Last post August 24, 2014, 10:17:40 AM
by -Ð@Rk.ÐèVi£-
0 Replies
467 Views
Last post August 24, 2014, 10:27:18 AM
by -Ð@Rk.ÐèVi£-
0 Replies
458 Views
Last post August 24, 2014, 10:30:49 AM
by -Ð@Rk.ÐèVi£-
0 Replies
564 Views
Last post August 24, 2014, 10:44:00 AM
by -Ð@Rk.ÐèVi£-
0 Replies
398 Views
Last post January 10, 2015, 01:46:37 PM
by ρŕίήςέ ŕάήά




Back to top