+ ShareSpark.net »  :::: Bollywood Zone » Bollywood Movies (Original Rips) » TeamSSX Bollywood Releases
|- Finding Fanny (2014) DvDScrRip 480p x264 Hindi Audio AC-3 YsB TeaM FL


Finding Fanny (2014) DvDScrRip 480p x264 Hindi Audio AC-3 YsB TeaM FL

0 Members and 1 Guest are viewing this topic.

September 13, 2014, 03:17:30 PM
  • Admin
  • Legend Member
  • ****
  • Topic Author
  • Thank You: 1084
  • Reputation: 1231
  • Activity:
    1.4%
  • Country: pk
  • Posts: 2936
  • Topics: 1321
  • Join Date: Jul 2013
  • Khuwaja Market Tando Allahyar
Torrable - One stop for all your download & upload needs. It's smart, easy and free.

Finding Fanny (2014) DvDScrRip 480p x264 Hindi Audio AC-3 YsB TeaM FL



 :info:

General
Complete name : Finding Fanny (2014) DvDScrRip 480p x264 Hindi Audio AC-3 YsB TeaM FL.mkv
Format : Matroska
Format version : Version 2
File size : 562 MiB
Duration : 1h 40mn
Overall bit rate : 780 Kbps

Video
ID : 1
Format : AVC
Duration : 1h 40mn
Bit rate : 650 Kbps
Width : 848 pixels
Height : 420 pixels
Frame rate mode : Constant
Frame rate : 29.970 fps
Stream size : 459 MiB (82%)

Audio
ID : 2
Format : AC-3
Duration : 1h 40mn
Bit rate : 128 Kbps
Channel(s) : 2 channels
Channel positions : Front: L R
Sampling rate : 48.0 KHz
Stream size : 92.3 MiB (16%)


 :ss:




 :download:








Share this topic on FacebookShare this topic on GoogleShare this topic on MySpaceShare this topic on TwitterShare this topic on Yahoo



Thanks given by:


September 13, 2014, 04:41:04 PM
Reply #1
  • Admin
  • Legend Member
  • ****
  • Thank You: 626
  • Reputation: 633
  • Activity:
    0.4%
  • Country: cn
  • Posts: 2341
  • Topics: 484
  • Join Date: Dec 2011
  • ShareSpark Member
  • Expertises:
  • Bollywood Movies
  • PC Applications
  • PC Games

Tags:
 

Related Topics





Back to top