+ ShareSpark.net »  :::: Dubbed Zone (Dubbed English in Hindi) » English Movies Dubbed in Hindi » High Resolution Movies
|- X-Men - Days of Future Past (2014) + Extras 1080p BluRay x264 Dual Audio [Eng 5.1 + Hindi 5.1] - TBI


X-Men - Days of Future Past (2014) + Extras 1080p BluRay x264 Dual Audio [Eng 5.1 + Hindi 5.1] - TBI

0 Members and 1 Guest are viewing this topic.

October 09, 2014, 08:53:55 AM
  • Admin
  • Legend Member
  • ****
  • Topic Author
  • Thank You: 4147
  • Reputation: 2275
  • Activity:
    0.2%
  • Country: in
  • Posts: 4776
  • Topics: 2537
  • Join Date: May 2013
  • ShareSpark Member
Torrable - One stop for all your download & upload needs. It's smart, easy and free.
X-Men - Days of Future Past (2014) + Extras 1080p BluRay x264 Dual Audio [English 5.1 + Hindi 5.1] - TBI





:info:

Release Info:
Quote:
Release Name: X-Men: Days of Future Past (2014)
Size: 2.25 GiB
Video: AVC | 1920 x 800 | 2000 Kbps | 23.976 FPS | 2.40:1
Audio 1: English | 224 Kbps | 6ch | AC3
Audio 2: Hindi | 224 Kbps | 6ch | AC3
Runtime: 02h 11mn 35sec
Subtitles: No
Source: Bluray.IPT

IMDB Info:
Quote:
Name: X-Men: Days of Future Past (2014)
Genre: Action | Adventure | Sci-Fi
IMDB:

IMDB Rating: 8.3/10 from 248,307 users
Director: Bryan Singer
Writers: Simon Kinberg (screenplay), Jane Goldman (story)
Cast: Patrick Stewart, Ian McKellen, Hugh Jackman
Plot: The X-Men send Wolverine to the past in a desperate effort to change history and prevent
an event that results in doom for both humans and mutants.




Extras:
Quote:
1. Bloopers - Gag Reel (05:40)
2. Classification - M (11:54)
3. Deleted Scenes (05:36) + Commentary
4. Double Take- Xavier & Magneto (11:51)
5. Kitchen Sequence (06:29)
6. Sentinels - For a Secure Future (09:19)
7. X-Men - Reunited (09:47)



Extras Info:
Quote:
Size: 541 MiB
Video: AVC | 1280 x 720 | 1000 Kbps | 23.976 FPS | 16:9
Audio : English (Untouched) | 224 Kbps | 2ch | AC3
Runtime: 01h 00mn 41sec
Subtitles: English
Source: BluRay.REMUX-BitHD



Mediainfo
General
Complete name : X-Men - Days of Future Past (2014).mp4
Format : MPEG-4
Format profile : Base Media
Codec ID : isom
File size : 2.25 GiB
Duration : 2h 11mn
Overall bit rate : 2 450 Kbps

Video
ID : 1
Format : AVC
Format/Info : Advanced Video Codec
Format profile : [email protected]
Format settings, CABAC : Yes
Format settings, ReFrames : 3 frames
Codec ID : avc1
Codec ID/Info : Advanced Video Coding
Duration : 2h 11mn
Bit rate : 2 000 Kbps
Maximum bit rate : 14.7 Mbps
Width : 1 920 pixels
Height : 800 pixels
Display aspect ratio : 2.40:1
Frame rate mode : Constant
Frame rate : 23.976 fps
Color space : YUV
Chroma subsampling : 4:2:0
Bit depth : 8 bits
Scan type : Progressive
Bits/(Pixel*Frame) : 0.054
Stream size : 1.84 GiB (82%)
Writing library : x264 core 142 r2431 ac76440
Encoding settings : cabac=1 / ref=4 / deblock=1:-1:-1 / analyse=0x3:0x113 / me=umh / subme=9 / psy=1 / psy_rd=1.00:0.00 / mixed_ref=1 / me_range=24 / chroma_me=1 / trellis=1 / 8x8dct=1 / cqm=0 / deadzone=21,11 / fast_pskip=1 / chroma_qp_offset=-2 / threads=3 / lookahead_threads=1 / sliced_threads=0 / nr=0 / decimate=1 / interlaced=0 / bluray_compat=0 / constrained_intra=0 / bframes=4 / b_pyramid=1 / b_adapt=1 / b_bias=0 / direct=1 / weightb=1 / open_gop=0 / weightp=1 / keyint=240 / keyint_min=23 / scenecut=40 / intra_refresh=0 / rc_lookahead=40 / rc=2pass / mbtree=1 / bitrate=2000 / ratetol=1.0 / qcomp=0.60 / qpmin=0 / qpmax=69 / qpstep=4 / cplxblur=20.0 / qblur=0.5 / vbv_maxrate=62500 / vbv_bufsize=78125 / nal_hrd=none / filler=0 / ip_ratio=1.40 / aq=1:1.00

Audio #1
ID : 2
Format : AC-3
Format/Info : Audio Coding 3
Mode extension : CM (complete main)
Format settings, Endianness : Big
Codec ID : ac-3
Duration : 2h 11mn
Bit rate mode : Constant
Bit rate : 224 Kbps
Channel count : 6 channels
Channel positions : Front: L C R, Side: L R, LFE
Sampling rate : 48.0 KHz
Bit depth : 16 bits
Compression mode : Lossy
Stream size : 211 MiB (9%)
Language : English

Audio #2
ID : 3
Format : AC-3
Format/Info : Audio Coding 3
Mode extension : CM (complete main)
Format settings, Endianness : Big
Codec ID : ac-3
Duration : 2h 11mn
Bit rate mode : Constant
Bit rate : 224 Kbps
Channel count : 6 channels
Channel positions : Front: L C R, Side: L R, LFE
Sampling rate : 48.0 KHz
Bit depth : 16 bits
Compression mode : Lossy
Stream size : 211 MiB (9%)
Language : Hindi


:ss:
============================================================================




============================================================================
:download:

:::::::  SAMPLE  :::::::



Full Movie + Extras









DON'T FORGET TO HIT THANX AND +REPUTE, IF.. YOU LIKE MY POST

Share this topic on FacebookShare this topic on GoogleShare this topic on MySpaceShare this topic on TwitterShare this topic on Yahoo

« Last Edit: May 19, 2015, 10:50:14 PM by sσи¡иdєяsσиý »


Thanks given by:


May 19, 2015, 10:52:07 PM
Reply #1
  • Admin
  • Legend Member
  • ****
  • Topic Author
  • Thank You: 4147
  • Reputation: 2275
  • Activity:
    0.2%
  • Country: in
  • Posts: 4776
  • Topics: 2537
  • Join Date: May 2013
  • ShareSpark Member

May 20, 2015, 11:47:27 AM
Reply #2
  • Senior Member
  • ***
  • Thank You: 0
  • Reputation: 0
  • Activity:
    0.2%
  • Country: in
  • Posts: 224
  • Topics: 0
  • Join Date: Feb 2012
  • ShareSpark Member

January 01, 2017, 07:43:53 AM
Reply #3
  • Semi Newbie
  • **
  • Thank You: 0
  • Reputation: 0
  • Activity:
    10%
  • Country: in
  • Posts: 49
  • Topics: 1
  • Join Date: Dec 2016
  • ShareSpark Member

Tags:
 

Related Topics

  Subject / Started by Replies Last post
1 Replies
589 Views
Last post October 04, 2014, 03:42:04 PM
by azhar0300♥♫
0 Replies
365 Views
Last post October 04, 2014, 03:45:13 PM
by azhar0300♥♫
2 Replies
830 Views
Last post October 04, 2014, 07:55:51 PM
by •●๋ HεʍⓀυмΔя ☣
1 Replies
665 Views
Last post October 09, 2014, 05:24:22 AM
by OutlanderHere
1 Replies
447 Views
Last post December 27, 2016, 10:30:27 PM
by vjkumar24




Back to top