+ ShareSpark.net »  :::: Bollywood Zone » Indian TV Shows
|- Comedy Nights with Kapil, 720P Full Episode -125, November 9th, 2014


Mastercard 10% Off

Comedy Nights with Kapil, 720P Full Episode -125, November 9th, 2014

0 Members and 1 Guest are viewing this topic.

November 10, 2014, 02:31:48 PM
  • Addic7ed (Inactive)
  • Senior Member
  • ****
  • Topic Author
  • Thank You: 51
  • Reputation: 24
  • Activity:
    0%
  • Country: in
  • Posts: 276
  • Topics: 94
  • Join Date: Nov 2013
  • ♫ Ψσυя sм¡lє ¡s тнє Kєý тσ υиlσ¢k мý нєαят ♫
Comedy Nights with Kapil, 720P Full Episode -125, November 9th, 2014



 :info:
Format                                   : AVI
Format/Info                              : Audio Video Interleave
File size                                : 732 MiB
Duration                                 : 55mn 19s
Overall bit rate mode                    : Variable
Overall bit rate                         : 1 850 Kbps
Writing library                          : MPlayer

Video
ID                                       : 0
Format                                   : AVC
Format/Info                              : Advanced Video Codec
Format profile                           : [email protected]
Format settings, CABAC                   : Yes
Format settings, ReFrames                : 2 frames
Format settings, GOP                     : M=1, N=24
Codec ID                                 : H264
Duration                                 : 55mn 19s
Bit rate mode                            : Variable
Bit rate                                 : 1 461 Kbps
Maximum bit rate                         : 2 212 Kbps
Width                                    : 1 024 pixels
Height                                   : 576 pixels
Display aspect ratio                     : 16:9
Frame rate                               : 25.000 fps
Color space                              : YUV
Chroma subsampling                       : 4:2:0
Bit depth                                : 8 bits
Scan type                                : Progressive
Bits/(Pixel*Frame)                       : 0.099
Stream size                              : 578 MiB (79%)

Audio
ID                                       : 1
Format                                   : AC-3
Format/Info                              : Audio Coding 3
Mode extension                           : CM (complete main)
Format settings, Endianness              : Big
Codec ID                                 : 2000
Duration                                 : 55mn 18s
Bit rate mode                            : Constant
Bit rate                                 : 384 Kbps
Channel(s)                               : 6 channels
Channel positions                        : Front: L C R, Side: L R, LFE
Sampling rate                            : 48.0 KHz
Bit depth                                : 16 bits
Compression mode                         : Lossy
Stream size                              : 152 MiB (21%)
Alignment                                : Split accross interleaves
Interleave, duration                     : 500 ms (12.50 video frames)
Interleave, preload duration             : 500 ms








 :download:






Share this topic on FacebookShare this topic on GoogleShare this topic on MySpaceShare this topic on TwitterShare this topic on Yahoo

« Last Edit: November 10, 2014, 02:44:35 PM by Ʈ¡gєя™♥♫ »


Thanks given by:


Tags:
 

Related Topics

  Subject / Started by Replies Last post
0 Replies
1046 Views
Last post January 20, 2014, 02:22:20 PM
by sαиjαý2423
0 Replies
723 Views
Last post April 06, 2014, 11:09:46 AM
by wasim888
1 Replies
991 Views
Last post September 04, 2014, 04:34:33 PM
by jorden
1 Replies
1152 Views
Last post September 04, 2014, 04:34:45 PM
by jorden
0 Replies
1433 Views
Last post November 29, 2015, 01:45:06 PM
by KNIGHT RIDERS




Back to top