+ ShareSpark.net »  :::: Dubbed Zone (Dubbed English in Hindi) » English Movies Dubbed in Hindi » High Resolution Movies
|- Journey 2 The Mysterious Island 2012 1080p BDRRip x264 [Dual Audio [Hin DD5.1+Eng DD5.1]...Hon3y


Journey 2 The Mysterious Island 2012 1080p BDRRip x264 [Dual Audio [Hin DD5.1+Eng DD5.1]...Hon3y

0 Members and 1 Guest are viewing this topic.

March 04, 2015, 11:10:37 PM
  • Admin
  • Legend Member
  • ****
  • Topic Author
  • Thank You: 3444
  • Reputation: 1215
  • Activity:
    0%
  • Posts: 5861
  • Topics: 3331
  • Join Date: Apr 2012
  • No Tears For The Dead
  • Expertises:
  • All Rounder In Each Field
Journey 2 The Mysterious Island 2012 1080p BDRRip x264 [Dual Audio [Hin DD5.1+Eng DD5.1]...Hon3y 




Encoded By @JmD007


General

Complete name : Journey 2 The Mysterious Island 2012 1080p BDRRip x264 [Dual Audio [Hin DD5.1+Eng DD5.1]...Hon3y.mkv
Format : Matroska
Format version : Version 4 / Version 2
File size : 5.98 GiB
Duration : 1h 34mn
Overall bit rate : 9 095 Kbps


Video
ID : 1
Format : AVC
Format/Info : Advanced Video Codec
Format profile : [email protected]
Format settings, CABAC : Yes
Format settings, ReFrames : 4 frames
Codec ID : V_MPEG4/ISO/AVC
Duration : 1h 34mn
Bit rate : 8 028 Kbps
Width : 1 920 pixels
Height : 1 080 pixels
Display aspect ratio : 16:9
Frame rate mode : Constant
Frame rate : 23.976 fps
Color space : YUV
Chroma subsampling : 4:2:0
Bit depth : 8 bits
Scan type : Progressive
Bits/(Pixel*Frame) : 0.161
Stream size : 5.15 GiB (86%)
Title : @JmD007
Writing library : x264 core 142 r2431 ac76440


Audio #1
ID : 2
Format : AC-3
Format/Info : Audio Coding 3
Mode extension : CM (complete main)
Format settings, Endianness : Big
Codec ID : A_AC3
Duration : 1h 34mn
Bit rate mode : Constant
Bit rate : 448 Kbps
Channel(s) : 6 channels
Channel positions : Front: L C R, Side: L R, LFE
Sampling rate : 48.0 KHz
Bit depth : 16 bits
Compression mode : Lossy
Stream size : 302 MiB (5%)
Title : @JmD007
Language : Hindi
Default : Yes
Forced : No

Audio #2
ID : 3
Format : AC-3
Format/Info : Audio Coding 3
Mode extension : CM (complete main)
Format settings, Endianness : Big
Codec ID : A_AC3
Duration : 1h 34mn
Bit rate mode : Constant
Bit rate : 640 Kbps
Channel(s) : 6 channels
Channel positions : Front: L C R, Side: L R, LFE
Sampling rate : 48.0 KHz
Bit depth : 16 bits
Compression mode : Lossy
Stream size : 431 MiB (7%)
Title : @JmD007
Language : English
Default : No
Forced : No











:sample:






:download:





Share this topic on FacebookShare this topic on GoogleShare this topic on MySpaceShare this topic on TwitterShare this topic on Yahoo



Thanks given by:


Tags:
 

Related Topics





Back to top