+ ShareSpark.net »  :::: Dubbed Zone (Dubbed English in Hindi) » English Movies Dubbed in Hindi » High Resolution Movies
|- X-Men (2000) + Extras 1080p BluRay x264 Dual Audio [English 5.1 + Hindi 2.0] - TBI


X-Men (2000) + Extras 1080p BluRay x264 Dual Audio [English 5.1 + Hindi 2.0] - TBI

0 Members and 1 Guest are viewing this topic.

March 12, 2015, 11:33:33 AM
  • Admin
  • Legend Member
  • ****
  • Topic Author
  • Thank You: 3278
  • Reputation: 1184
  • Activity:
    23.6%
  • Posts: 5883
  • Topics: 3310
  • Join Date: Apr 2012
  • No Tears For The Dead
  • Expertises:
  • All Rounder In Each Field
Torrable - One stop for all your download & upload needs. It's smart, easy and free.
X-Men (2000) + Extras 1080p BluRay x264 Dual Audio [English 5.1 + Hindi 2.0] - TBI





Release Info:
Quote:
Release Name: X-Men (2000)
Size: 1.94 GiB
Video: AVC | 1920 x 816 | 2000 Kbps | 23.976 FPS | 2.35:1
Audio 1: English | 448 Kbps | 6ch | AC3
Audio 2: Hindi | 224 Kbps | 2ch | AC3
Runtime: 01h 44mn 19sec
Subtitles: No
Source: Blu-ray HDRemux



IMDB Info:
Quote:
Name: X-Men (2000)
Genre: Action | Adventure | Sci-Fi
IMDB:

IMDB Rating: 7.4/10 from 259,738 users
Director: Bryan Singer
Writers: Tom DeSanto (story), Bryan Singer (story)
Cast: Hugh Jackman, Patrick Stewart, Ian McKellen
Plot: Two mutants come to a private academy for their kind whose resident superhero team
must oppose a terrorist organization with similar powers.



Extras:
Quote:
Production Documentary Scrapbook (01:03:27)
The Uncanny Suspects (24:16)
X-Factor (22:48)
Fox Special - The Mutant Watch (21:58)
Premieres Around the World (18:52)
The Special Effects of the X-Men (17:29)
Deleted and Extended Scenes (11:02)
Hugh Jackmans First Reading (11:00)
Reflection of The X-Me (08:39)
Bryan Singer Interview (06:18)
Sen Kelly Effects Breakdown (05:00)
Ellis Island Premiere (04:22)
Toad (03:27)
Hugh Jackmans Screen Test (01:57)
Storm (01:26)
Cyclops (01:18)
Animatic 1 - Liberty Head (01:07)
Animatic 2 - Train Station (00:56)



Extras Info:
Quote:
Size: 1.61 GiB
Video: AVC | 1280 x 720 + 720 x 480 | 800 Kbps | 23.976 + 29.970 FPS | 16:9 + 4:3
Audio : English | 224 Kbps | 2ch | AC3
Runtime: 03h 45mn 22sec
Subtitles: None


Code: [Select]
General
Complete name : X-Men (2000).mp4
Format : MPEG-4
Format profile : Base Media
Codec ID : isom
File size : 1.95 GiB
Duration : 1h 44mn
Overall bit rate : 2 672 Kbps

Video
ID : 1
Format : AVC
Format/Info : Advanced Video Codec
Format profile : [email protected]
Format settings, CABAC : Yes
Format settings, ReFrames : 4 frames
Codec ID : avc1
Codec ID/Info : Advanced Video Coding
Duration : 1h 44mn
Bit rate : 2 000 Kbps
Maximum bit rate : 28.6 Mbps
Width : 1 920 pixels
Height : 816 pixels
Display aspect ratio : 2.35:1
Frame rate mode : Constant
Frame rate : 23.976 fps
Color space : YUV
Chroma subsampling : 4:2:0
Bit depth : 8 bits
Scan type : Progressive
Bits/(Pixel*Frame) : 0.053
Stream size : 1.46 GiB (75%)
Writing library : x264 core 142 r2479kMod dd79a61
Encoding settings : cabac=1 / ref=5 / deblock=1:-2:-2 / analyse=0x3:0x133 / me=umh / subme=9 / psy=1 / fade_compensate=0.00 / psy_rd=1.00:0.00 / mixed_ref=1 / me_range=24 / chroma_me=1 / trellis=1 / 8x8dct=1 / cqm=0 / deadzone=21,11 / fast_pskip=1 / chroma_qp_offset=-2 / threads=12 / lookahead_threads=1 / sliced_threads=0 / nr=0 / decimate=1 / interlaced=0 / bluray_compat=0 / constrained_intra=0 / fgo=0 / bframes=4 / b_pyramid=1 / b_adapt=1 / b_bias=0 / direct=3 / weightb=1 / open_gop=0 / weightp=2 / keyint=250 / keyint_min=25 / scenecut=40 / intra_refresh=0 / rc_lookahead=40 / rc=2pass / mbtree=1 / bitrate=2000 / ratetol=1.0 / qcomp=0.60 / qpmin=0 / qpmax=69 / qpstep=4 / cplxblur=20.0 / qblur=0.5 / vbv_maxrate=62500 / vbv_bufsize=78125 / nal_hrd=none / filler=0 / ip_ratio=1.40 / aq=1:1.00

Audio #1
ID : 2
Format : AC-3
Format/Info : Audio Coding 3
Mode extension : CM (complete main)
Format settings, Endianness : Big
Codec ID : ac-3
Duration : 1h 44mn
Bit rate mode : Constant
Bit rate : 448 Kbps
Channel(s) : 6 channels
Channel positions : Front: L C R, Side: L R, LFE
Sampling rate : 48.0 KHz
Bit depth : 16 bits
Compression mode : Lossy
Stream size : 334 MiB (17%)
Language : English

Audio #2
ID : 3
Format : AC-3
Format/Info : Audio Coding 3
Mode extension : CM (complete main)
Format settings, Endianness : Big
Codec ID : ac-3
Duration : 1h 44mn
Bit rate mode : Constant
Bit rate : 224 Kbps
Channel(s) : 2 channels
Channel positions : Front: L R
Sampling rate : 48.0 KHz
Bit depth : 16 bits
Compression mode : Lossy
Stream size : 167 MiB (8%)
Language : Hindi






:sample:






:download:















Extras













































Share this topic on FacebookShare this topic on GoogleShare this topic on MySpaceShare this topic on TwitterShare this topic on Yahoo

« Last Edit: March 12, 2015, 11:40:33 AM by s¡lєит_αssαss¡и »



December 30, 2016, 07:23:14 AM
Reply #1
  • Begginer
  • **
  • Thank You: 0
  • Reputation: 1
  • Activity:
    11.4%
  • Country: in
  • Posts: 56
  • Topics: 1
  • Join Date: Dec 2016
  • ShareSpark Member

Tags: file removed 
 

Related Topics





Back to top