+ ShareSpark.net »  :::: Dubbed Zone (Dubbed English in Hindi) » English Movies Dubbed in Hindi
|- JAMES BOND (1962-2012) All MOVIES [20 Movies in Hindi - 4 Movies in English]


JAMES BOND (1962-2012) All MOVIES [20 Movies in Hindi - 4 Movies in English]

0 Members and 2 Guests are viewing this topic.

July 05, 2012, 04:50:41 PM
  • Head Admin
  • Legend Member
  • *****
  • Topic Author
  • Thank You: 1051
  • Reputation: 984
  • Activity:
    58.6%
  • Country: in
  • Posts: 5300
  • Topics: 1470
  • Join Date: Dec 2010
  • Online Again
James Bond (1962-2012) All MOVIES [20 Movies in Hindi - 4 Movies in English]


1 Dr. No (1962-Sean Connery)
2 From Russia With Love (1963-Sean Connery)
3 Goldfinger (1964-Sean Connery)
4 Thunderball (1965-Sean Connery)
5 You Only Live Twice (1967-Sean Connery) [IN ENGLISH]
6 On Her Majesty's Secret Service (1969-George Lazenby) [IN ENGLISH]
7 Diamonds Are Forever (1971-Sean Connery) [IN ENGLISH]
8 Live and Let Die (1973-Roger Moore) [IN ENGLISH]
9 The Man with the Golden Gun (1974-Roger Moore)
10 The Spy Who Loved Me (1977-Roger Moore)
11 Moonraker (1979-Roger Moore)
12 For Your Eyes Only (1981-Roger Moore)
13 Never Say Never Again(1983-Sean Connery) [NON-EON FILM]
14 Octopussy (1983-Roger Moore)
15 A View to a Kill (1985-Roger Moore)
16 The Living Daylights (1987-Timothy Dalton)
17 Licence to Kill (1989-Timothy Dalton)
18 GoldenEye (1995-Pierce Brosnan)
19 Tomorrow Never Dies (1997-Pierce Brosnan)
20 The World is Not Enough (1999-Pierce Brosnan)
21 Die Another Day (2002-Pierce Brosnan)
22 Casino Royale (2006-Daniel Craig)
23 Quantum of Solace (2008-Daniel Craig)
24 Skyfall (2012-Daniel Craig)

Share this topic on FacebookShare this topic on GoogleShare this topic on MySpaceShare this topic on TwitterShare this topic on Yahoo

« Last Edit: March 01, 2013, 08:43:07 AM by -==DigOshO==- »
If you like any post, then say thanks to the uploader by posting in his topic, adding thanks and reputes to him.
Because we all want is just a little appreciation from you.

Thanks given by:


July 05, 2012, 05:03:27 PM
Reply #1
  • Head Admin
  • Legend Member
  • *****
  • Topic Author
  • Thank You: 1051
  • Reputation: 984
  • Activity:
    58.6%
  • Country: in
  • Posts: 5300
  • Topics: 1470
  • Join Date: Dec 2010
  • Online Again

#1. 007 Dr. No (1962) 720p BRRip [Dual Audio] {Eng-Hindi}







Format : mkv
Language: English/Hindi
Subtitle: Yes
Duration : 1h 49mn
Overall bit rate : 1 348 Kbps
Width : 1 280 pixels
Height : 720 pixels
Frame rate: 23.976 fps
Display aspect ratio : 1.667
Size: 1.03 GB





Screenshots



 









James Bond (007) is Britain's top agent and is on an exciting mission, to solve the mysterious murder of a fellow agent. The task sends him to Jamacia, where he joins forces with Quarrel and a loyal CIA agent, Felix Leiter. While dodging tarantulas, "fire breathing dragons" and a trio of assassins, known as the three blind mice. Bond meets up with the beautiful Honey Ryder and goes face to face with the evil Dr. No.






FileOpic







Upgrand







EpicShare







PutLocker







« Last Edit: December 22, 2012, 01:53:48 PM by Hυмzα kнαliÐ »
If you like any post, then say thanks to the uploader by posting in his topic, adding thanks and reputes to him.
Because we all want is just a little appreciation from you.

July 05, 2012, 05:11:14 PM
Reply #2
  • Head Admin
  • Legend Member
  • *****
  • Topic Author
  • Thank You: 1051
  • Reputation: 984
  • Activity:
    58.6%
  • Country: in
  • Posts: 5300
  • Topics: 1470
  • Join Date: Dec 2010
  • Online Again



#2. James Bond 007 From Russia With Love (1963) [BrRip][English-Hindi]









Code: [Select]
General: James Bond 007 From Russia With Love (1963) [BrRip][English-Hindi]


Format                                   : AVI
Format/Info                              : Audio Video Interleave
Format profile                           : OpenDML
Format settings                          : rec
File size                                : 37.6 MiB
Duration                                 : 1h 50mn
Overall bit rate                         : 47.6 Kbps
Writing application                      : AVI-Mux GUI 1.17.8.3, Feb 16 201019:42:50

Video
ID                                       : 0
Format                                   : MPEG-4 Visual
Format profile                           : Advanced Simple@L5
Format settings, BVOP                    : 1
Format settings, QPel                    : No
Format settings, GMC                     : No warppoints
Format settings, Matrix                  : Custom
Codec ID                                 : XVID
Codec ID/Hint                            : XviD
Duration                                 : 1h 50mn
Source duration                          : 7s 80ms
Bit rate                                 : 1 020 bps
Width                                    : 528 pixels
Height                                   : 304 pixels
Display aspect ratio                     : 1.737
Frame rate                               : 25.000 fps
Color space                              : YUV
Chroma subsampling                       : 4:2:0
Bit depth                                : 8 bits
Scan type                                : Progressive
Compression mode                         : Lossy
Bits/(Pixel*Frame)                       : 0.000
Stream size                              : 825 KiB (2%)
Writing library                          : XviD 1.2.0.dev47 (UTC 2006-11-01)

Audio #1
ID                                       : 1
Format                                   : MPEG Audio
Format version                           : Version 1
Format profile                           : Layer 3
Mode                                     : Joint stereo
Mode extension                           : MS Stereo
Codec ID                                 : 55
Codec ID/Hint                            : MP3
Duration                                 : 1h 50mn
Source duration                          : 7s 296ms
Bit rate mode                            : Constant
Bit rate                                 : 112 Kbps
Channel(s)                               : 2 channels
Sampling rate                            : 48.0 KHz
Compression mode                         : Lossy
Stream size                              : 99.8 KiB (0%)
Alignment                                : Aligned on interleaves
Interleave, duration                     : 545 ms (13.62 video frames)
Interleave, preload duration             : 216 ms
Title                                    : English
Writing library                          : LAME3.97

Audio #2
ID                                       : 2
Format                                   : MPEG Audio
Format version                           : Version 1
Format profile                           : Layer 3
Mode                                     : Joint stereo
Mode extension                           : MS Stereo
Codec ID                                 : 55
Codec ID/Hint                            : MP3
Duration                                 : 1h 49mn
Source duration                          : 7s 296ms
Bit rate mode                            : Constant
Bit rate                                 : 128 Kbps
Channel(s)                               : 2 channels
Sampling rate                            : 48.0 KHz
Compression mode                         : Lossy
Stream size                              : 114 MB
Alignment                                : Aligned on interleaves
Interleave, duration                     : 545 ms (13.62 video frames)
Interleave, preload duration             : 216 ms
Title                                    : CurrentHD
Writing library                          : LAME3.97
 



Screenshots


















FileOpic




Upgrand




EpicShare




LetitBit



---------------------
729 MB
« Last Edit: December 22, 2012, 02:07:57 PM by Hυмzα kнαliÐ »
If you like any post, then say thanks to the uploader by posting in his topic, adding thanks and reputes to him.
Because we all want is just a little appreciation from you.

July 05, 2012, 05:16:13 PM
Reply #3
  • Head Admin
  • Legend Member
  • *****
  • Topic Author
  • Thank You: 1051
  • Reputation: 984
  • Activity:
    58.6%
  • Country: in
  • Posts: 5300
  • Topics: 1470
  • Join Date: Dec 2010
  • Online Again


#3. James Bond 007 Goldfinger (1964) 720p BRRip [Dual Audio]{Eng Hindi}








Code: [Select]
Format : mkv
Duration : 1h 50mn
Language: English/Hindi
Source: BHATTI87
Subtitle: No
Overall bit rate : 1 259 Kbps
Width : 1 202 pixels
Height : 720 pixels
Frame rate: 23.976 fps
Display aspect ratio : 16:9
Size: 990 MB



Screenshots
















Uploadcore






FILEUPLO.DE




---------------------
990 MB
« Last Edit: December 27, 2012, 11:42:06 PM by ρυиΞΞT »
If you like any post, then say thanks to the uploader by posting in his topic, adding thanks and reputes to him.
Because we all want is just a little appreciation from you.

July 05, 2012, 05:23:34 PM
Reply #4
  • Head Admin
  • Legend Member
  • *****
  • Topic Author
  • Thank You: 1051
  • Reputation: 984
  • Activity:
    58.6%
  • Country: in
  • Posts: 5300
  • Topics: 1470
  • Join Date: Dec 2010
  • Online Again


#4. James Bond 007 THUNDERBALL (1965) [BrRip][Hindi+English]








Format : mkv
Language: English/Hindi
Duration : 2h 10mn
Overall bit rate : 850 Kbps
Width : 720 pixels
Height : 480 pixels
Frame rate: 23.976 fps
Size: 903 MB




Screenshots












James Bond continues on his fourth mission, with his aim to recover two stolen warheads. They have been taken by the evil SPECTRE organisation. The world is held hostage and Bond heads to Nassau. Here, he meets the beautiful Domino and is forced into a thrilling confrontation with SPECTRE agent Emilio Largo, on board his boat, the Disco Volante. Will 007 prevent the killing of millions of innocent victims?   
   






FileOpic




Upgrand




LetitBit


« Last Edit: December 22, 2012, 02:08:37 PM by Hυмzα kнαliÐ »
If you like any post, then say thanks to the uploader by posting in his topic, adding thanks and reputes to him.
Because we all want is just a little appreciation from you.

July 05, 2012, 05:29:07 PM
Reply #5
  • Head Admin
  • Legend Member
  • *****
  • Topic Author
  • Thank You: 1051
  • Reputation: 984
  • Activity:
    58.6%
  • Country: in
  • Posts: 5300
  • Topics: 1470
  • Join Date: Dec 2010
  • Online Again
#5. You Only Live Twice (1967) m-HD x264 [ONLY IN ENG]



[User Rating:7.0/10]
[FORMAT]:..[ Matroska
[GENRE]: [ Action | Adventure | Sci-Fi | Thriller
[FILE SIZE]:..[ 500MB
[NO OF CDs]:..[ 1
[iMDB RATING]: [ 7.0/10

Screenshots:
 




When an American space capsule is swallowed up by what they believe to be a Russian spaceship, World War 3 nearly breaks out. The British Government, however, suspect that other powers are at work as the space craft went down near Japan. S.P.E.C.T.R.E. is the force behind the theft, as James Bond discovers, but its motives are far from clear, and he must first find out where the captured space capsule is held before America and Russia initiate another world war.      


____________
 MB
If you like any post, then say thanks to the uploader by posting in his topic, adding thanks and reputes to him.
Because we all want is just a little appreciation from you.

July 05, 2012, 05:35:49 PM
Reply #6
  • Head Admin
  • Legend Member
  • *****
  • Topic Author
  • Thank You: 1051
  • Reputation: 984
  • Activity:
    58.6%
  • Country: in
  • Posts: 5300
  • Topics: 1470
  • Join Date: Dec 2010
  • Online Again
#6. James.Bond-On Her Majesty's Secret Service 1969[ONLY IN ENG]



[User Rating:6.9/10]
[FORMAT]:...............[ Matroska
[GENRE]:................[ Action | Adventure | Romance | Thriller
[FILE SIZE]:............[ 550MB
[iMDB RATING ]..........[ 6.9/10
[NO OF CDs]:............[ 1
[LANGUAGE ]:............[ English

Screenshots:




Whilst on leave, British agent James Bond prevents a young woman, Tracy Draco, from committing suicide. Her father is the head of a powerful crime syndicate who is impressed by Bond and wants him to protect his daughter by marrying her. In exchange he offers Bond information which will lead 007 to his arch enemy Ernst Blofeld. At first Bond agrees to the deal purely to fulfil his objective to kill Blofeld but later he grows to love Tracy but when the British learn that Blofeld plans to destroy mankind with a deadly virus, 007 is torn between his loyalty to his county and his intent to marry Tracy      


____________
545 MB
If you like any post, then say thanks to the uploader by posting in his topic, adding thanks and reputes to him.
Because we all want is just a little appreciation from you.

July 05, 2012, 05:40:18 PM
Reply #7
  • Head Admin
  • Legend Member
  • *****
  • Topic Author
  • Thank You: 1051
  • Reputation: 984
  • Activity:
    58.6%
  • Country: in
  • Posts: 5300
  • Topics: 1470
  • Join Date: Dec 2010
  • Online Again
#7. Diamonds Are Forever (1971) m-HD x264 [Only in Eng]



[FORMAT]:..............[ Matroska
[iMDB RATING ].........[ 6.7/10
[GENRE]:...............[ Action | Adventure | Sci-Fi | Thriller
[FILE SIZE]:...........[ 500 MB
[NO OF CDs]:...........[ 1
[LANGUAGE ]:...........[ English
[SOURCE]:..............[ 720p

Screenshots:




After traveling the world in his quest to kill Blofeld, Bond returns triumphant, only to discover a case waiting for him: a large amount of diamonds has been stolen from the South African mines and two offbeat assassins are killing everyone in the smuggling ring one-by-one. Bond goes undercover as Peter Franks, diamond smuggler. What he discovers shocks him: the head of the smuggling ring is none other than Ernst Stavros Blofeld! Now, Bond must resist the wiles of a beautiful smuggler and survive the machinations of Mr. Wint and Mr. Kidd, Blofeld’s two best assassins so that he can uncover Blofelds sinister plot.       


____________
 MB
If you like any post, then say thanks to the uploader by posting in his topic, adding thanks and reputes to him.
Because we all want is just a little appreciation from you.

July 05, 2012, 05:45:08 PM
Reply #8
  • Head Admin
  • Legend Member
  • *****
  • Topic Author
  • Thank You: 1051
  • Reputation: 984
  • Activity:
    58.6%
  • Country: in
  • Posts: 5300
  • Topics: 1470
  • Join Date: Dec 2010
  • Online Again
#8. Live and Let Die (1973) m-HD x264 [Eng]


[Movie Title ]..........[ Live and Let Die
[Release Year ].........[ 1973
[iMDb Rating ]..........[ 6.8/10
[Genre ]................[ Action | Adventure | Crime | Thriller
[Files ]................[ 1
[File Size ]............[ 499 MB
[Language ].............[ English

Screenshots:




Several British agents have been murdered and James Bond is sent to New York, to investigate these mysterious deaths. Mr. Big comes to his knowledge, who is self-producing heroin. Along his journeys he meets Tee Hee who has a claw for a hand, Baron Samedi the voodoo master and Solitaire and her tarot cards. Bond must travel deep inside New York, through marshy grass and on water as he completes his mission


____________
500 MB
If you like any post, then say thanks to the uploader by posting in his topic, adding thanks and reputes to him.
Because we all want is just a little appreciation from you.

July 05, 2012, 05:49:40 PM
Reply #9
  • Head Admin
  • Legend Member
  • *****
  • Topic Author
  • Thank You: 1051
  • Reputation: 984
  • Activity:
    58.6%
  • Country: in
  • Posts: 5300
  • Topics: 1470
  • Join Date: Dec 2010
  • Online Again
#9. The Man With The Golden Gun (1974) {Dual audio} [Eng-Hindi]


Code: [Select]
General
Complete name                    : James Bond The Man With The Golden Gun (1974){Dual audio}[Eng Hindi]Current_HD
Format                           : Matroska
File size                        : 662 MiB
Duration                         : 2h 5mn
Overall bit rate                 : 739 Kbps
Encoded date                     : UTC 2010-10-20 01:51:21
Writing application              : mkvmerge v2.2.0 (\\\'Turn It On Again\\\') built on Mar  4 2008 13:20:25
Writing library                  : libebml v0.7.7 + libmatroska v0.8.1

Video
ID                               : 1
Format                           : AVC
Format/Info                      : Advanced Video Codec
Format profile                   : High@L3.1
Format settings, CABAC           : Yes
Format settings, ReFrames        : 5 frames
Muxing mode                      : Container profile=Unknown@3.1
Codec ID                         : V_MPEG4/ISO/AVC
Duration                         : 2h 5mn
Nominal bit rate                 : 548 Kbps
Width                            : 976 pixels
Height                           : 528 pixels
Display aspect ratio             : 16:9
Frame rate                       : 23.976 fps
Color space                      : YUV
Chroma subsampling               : 4:2:0
Bit depth                        : 8 bits
Scan type                        : Progressive
Bits/(Pixel*Frame)               : 0.044
Writing library                  : x264 core 67 r1139M 1024283
Encoding settings                : cabac=1 / ref=5 / deblock=1:-2:-1 / analyse=0x3:0x113 / me=umh / subme=6 / psy_rd=1.0:0.0 / mixed_ref=1 / me_range=16 / chroma_me=1 / trellis=1 / 8x8dct=1 / cqm=0 / deadzone=21,11 / chroma_qp_offset=-2 / threads=6 / nr=0 / decimate=1 / mbaff=0 / bframes=16 / b_pyramid=1 / b_adapt=1 / b_bias=0 / direct=3 / wpredb=1 / keyint=250 / keyint_min=25 / scenecut=40 / rc=2pass / bitrate=548 / ratetol=1.0 / qcomp=0.60 / qpmin=10 / qpmax=51 / qpstep=4 / cplxblur=20.0 / qblur=0.5 / ip_ratio=1.40 / pb_ratio=1.30 / aq=1:1.00

Audio #1
ID                               : 2
Format                           : AAC
Format/Info                      : Advanced Audio Codec
Format version                   : Version 4
Format profile                   : LC
Format settings, SBR             : Yes
Format settings, PS              : No
Codec ID                         : A_AAC
Duration                         : 2h 5mn
Channel(s)                       : 2 channels
Channel positions                : Front: L R
Sampling rate                    : 48.0 KHz
Title                            : CurrentHD
Language                         : English

Audio #2
ID                               : 3
Format                           : AAC
Format/Info                      : Advanced Audio Codec
Format version                   : Version 4
Format profile                   : LC
Format settings, SBR             : No
Codec ID                         : A_AAC
Duration                         : 2h 5mn
Channel(s)                       : 2 channels
Channel positions                : Front: L R
Sampling rate                    : 44.1 KHz
Title                            : CurrentHD
Language                         : Hindi









OR Alternate Download link--

---------------------
662 MB
If you like any post, then say thanks to the uploader by posting in his topic, adding thanks and reputes to him.
Because we all want is just a little appreciation from you.

July 05, 2012, 05:53:57 PM
Reply #10
  • Head Admin
  • Legend Member
  • *****
  • Topic Author
  • Thank You: 1051
  • Reputation: 984
  • Activity:
    58.6%
  • Country: in
  • Posts: 5300
  • Topics: 1470
  • Join Date: Dec 2010
  • Online Again
#10. James Bond The Spy Who Loved Me {1977} HDrip 720p {Dual audio}


Code: [Select]
General
Complete name                    : James Bond The Living Daylights[1987]Brrip[Dual audio][Eng Hindi]Current_HD
Format                           : Matroska
File size                        : 696 MiB
Duration                         : 2h 1mn
Overall bit rate                 : 800 Kbps
Encoded date                     : UTC 2010-03-07 07:09:21
Writing application              : mkvmerge v3.2.0 ('Beginnings') built on Feb 12 2010 16:46:17
Writing library                  : libebml v0.7.9 + libmatroska v0.8.1

Video
ID                               : 1
Format                           : AVC
Format/Info                      : Advanced Video Codec
Format profile                   : High@L2.1
Format settings, CABAC           : Yes
Format settings, ReFrames        : 3 frames
Muxing mode                      : Container profile=Unknown@2.1
Codec ID                         : V_MPEG4/ISO/AVC
Duration                         : 2h 1mn
Nominal bit rate                 : 735 Kbps
Width                            : 608 pixels
Height                           : 256 pixels
Display aspect ratio             : 2.35:1
Frame rate                       : 23.976 fps
Color space                      : YUV
Chroma subsampling               : 4:2:0
Bit depth                        : 8 bits
Scan type                        : Progressive
Bits/(Pixel*Frame)               : 0.197
Writing library                  : x264 core 80 r1376M 3feaec2
Encoding settings                : cabac=1 / ref=3 / deblock=1:0:0 / analyse=0x3:0x113 / me=hex / subme=7 / psy=1 / psy_rd=1.0:0.0 / mixed_ref=1 / me_range=16 / chroma_me=1 / trellis=0 / 8x8dct=1 / cqm=0 / deadzone=21,11 / fast_pskip=1 / chroma_qp_offset=-2 / threads=3 / sliced_threads=0 / nr=0 / decimate=1 / mbaff=0 / constrained_intra=0 / bframes=2 / b_pyramid=0 / b_adapt=1 / b_bias=0 / direct=3 / wpredb=1 / wpredp=2 / keyint=250 / keyint_min=25 / scenecut=40 / rc_lookahead=40 / rc=2pass / mbtree=1 / bitrate=735 / ratetol=1.0 / qcomp=0.60 / qpmin=10 / qpmax=51 / qpstep=4 / cplxblur=20.0 / qblur=0.5 / ip_ratio=1.40 / aq=2:1.00

Audio
ID                               : 2
Format                           : AAC
Format/Info                      : Advanced Audio Codec
Format version                   : Version 4
Format profile                   : LC
Format settings, SBR             : No
Codec ID                         : A_AAC
Duration                         : 2h 1mn
Channel(s)                       : 6 channels
Channel positions                : Front: L C R, Side: L R, LFE
Sampling rate                    : 48.0 KHz
Video delay                      : 500ms
Language                         : Hindi

Menu
00:00:00.054                     : en:00:00:00.054

      



OR Alternate Download Link--

---------------------
612.5 MB
If you like any post, then say thanks to the uploader by posting in his topic, adding thanks and reputes to him.
Because we all want is just a little appreciation from you.

July 05, 2012, 05:56:27 PM
Reply #11
  • Head Admin
  • Legend Member
  • *****
  • Topic Author
  • Thank You: 1051
  • Reputation: 984
  • Activity:
    58.6%
  • Country: in
  • Posts: 5300
  • Topics: 1470
  • Join Date: Dec 2010
  • Online Again
#11. Moonraker (1979) m-HD 720p [Dual audio][Eng Hindi]



General Information









[/size]
OR Alternate Download link--

---------------------
602.3 MB

If you like any post, then say thanks to the uploader by posting in his topic, adding thanks and reputes to him.
Because we all want is just a little appreciation from you.

July 05, 2012, 05:59:19 PM
Reply #12
  • Head Admin
  • Legend Member
  • *****
  • Topic Author
  • Thank You: 1051
  • Reputation: 984
  • Activity:
    58.6%
  • Country: in
  • Posts: 5300
  • Topics: 1470
  • Join Date: Dec 2010
  • Online Again
#12. James Bond For Your Eyes Only (1981)HDTV {Dual audio}[Eng Hindi] Current HD


Code: [Select]
Complete name                    : James_Bond_For_Your_Eyes_Only(1981-Roger Moore)Eng_Hindi@ryan00786
Format                           : Matroska
File size                        : 612 MiB
Duration                         : 2h 7mn
Overall bit rate                 : 669 Kbps
Encoded date                     : UTC 2010-11-05 09:16:24
Writing application              : mkvmerge v2.2.0 (\\\'Turn It On Again\\\') built on Mar  4 2008 13:20:25
Writing library                  : libebml v0.7.7 + libmatroska v0.8.1


Video
ID                               : 1
Format                           : AVC
Format/Info                      : Advanced Video Codec
Format profile                   : High@L3.0
Format settings, CABAC           : Yes
Format settings, ReFrames        : 5 frames
Format settings, GOP             : M=6, N=9
Muxing mode                      : Container profile=Unknown@3.0
Codec ID                         : V_MPEG4/ISO/AVC
Duration                         : 2h 7mn
Nominal bit rate                 : 485 Kbps
Width                            : 976 pixels
Height                           : 416 pixels
Display aspect ratio             : 2.35:1
Frame rate                       : 23.976 fps
Color space                      : YUV
Chroma subsampling               : 4:2:0
Bit depth                        : 8 bits
Scan type                        : Progressive
Bits/(Pixel*Frame)               : 0.050
Writing library                  : x264 core 66 r1113M cc4f807


Audio #1
ID                               : 2
Format                           : AAC
Format/Info                      : Advanced Audio Codec
Format version                   : Version 4
Format profile                   : LC
Format settings, SBR             : Yes
Format settings, PS              : No
Codec ID                         : A_AAC
Duration                         : 2h 7mn
Channel(s)                       : 2 channels
Channel positions                : Front: L R
Sampling rate                    : 48.0 KHz
Title                            : CurrentHD
Language                         : English


Audio #2
ID                               : 4
Format                           : AAC
Format/Info                      : Advanced Audio Codec
Format version                   : Version 4
Format profile                   : LC
Format settings, SBR             : No
Codec ID                         : A_AAC
Duration                         : 2h 7mn
Channel(s)                       : 2 channels
Channel positions                : Front: L R
Sampling rate                    : 44.1 KHz
Title                            : CurrentHD
Language                         : Hindi





[/size]
OR Alternate Download Link--

---------------------
612.5 MB

If you like any post, then say thanks to the uploader by posting in his topic, adding thanks and reputes to him.
Because we all want is just a little appreciation from you.

July 05, 2012, 06:07:09 PM
Reply #13
  • Head Admin
  • Legend Member
  • *****
  • Topic Author
  • Thank You: 1051
  • Reputation: 984
  • Activity:
    58.6%
  • Country: in
  • Posts: 5300
  • Topics: 1470
  • Join Date: Dec 2010
  • Online Again

#13. Never Say Never Again (1983) 720p BRRip [Dual Audio]{Eng-Hindi}








Format : mkv
Language: English/Hindi
Subtitles: Yes
Duration : 2h 14mn
Overall bit rate : 1 019 Kbps
Width : 1 280 pixels
Height : 544 pixels
Frame rate: 23.976 fps
Display aspect ratio : 2.40:1
Size: 978 MB




Screenshots














FileOpic







Upgrand






RapidGator






UppIt







EpicShare





« Last Edit: December 21, 2012, 12:44:51 PM by Hυмzα kнαliÐ »
If you like any post, then say thanks to the uploader by posting in his topic, adding thanks and reputes to him.
Because we all want is just a little appreciation from you.

July 05, 2012, 06:10:33 PM
Reply #14
  • Head Admin
  • Legend Member
  • *****
  • Topic Author
  • Thank You: 1051
  • Reputation: 984
  • Activity:
    58.6%
  • Country: in
  • Posts: 5300
  • Topics: 1470
  • Join Date: Dec 2010
  • Online Again
Octopussy (1983) m-HD 720p Hindi Eng BHATTI87




















« Last Edit: March 01, 2013, 08:28:16 AM by -==DigOshO==- »
If you like any post, then say thanks to the uploader by posting in his topic, adding thanks and reputes to him.
Because we all want is just a little appreciation from you.

July 05, 2012, 06:18:18 PM
Reply #15
  • Head Admin
  • Legend Member
  • *****
  • Topic Author
  • Thank You: 1051
  • Reputation: 984
  • Activity:
    58.6%
  • Country: in
  • Posts: 5300
  • Topics: 1470
  • Join Date: Dec 2010
  • Online Again
#15. James Bond A View To A Kill (1985) m-HD{Dual audio}[Eng Hindi]Current_HD


Code: [Select]
<br /> [Filename]:.......[James.Bond_A_View_To_A_Kill(1985-Roger Moore)Eng_Hindi_Current_HD@ryan00786<br /> [FORMAT]:…………………..[ Matroska<br /> [iMDB RATING ]………………[ 6.1/10<br /> [GENRE]:……………………[ Action | Adventure | Thriller<br /> [FILE SIZE]:………………..[ 664 MB<br /> [NO OF CDs]:………………..[ 1<br /> [RESOLUTION]:……………….[ 976*416<br /> [ASPECT RATIO]:……………..[ 2.35<br /> [FRAME RATE]:……………….[ 23.976 fps<br /> [LANGUAGE ]:………………..[ Eng Hindi<br /> [SUBTITLES]:………………..[NO<br /> [ORIGINAL RUNTIME]:………….[ 02:11:14<br /> [SOURCE]:…………………..[ 720p






OR Alternate Download link--

---------------------
664.1 MB
If you like any post, then say thanks to the uploader by posting in his topic, adding thanks and reputes to him.
Because we all want is just a little appreciation from you.

July 05, 2012, 06:24:53 PM
Reply #16
  • Head Admin
  • Legend Member
  • *****
  • Topic Author
  • Thank You: 1051
  • Reputation: 984
  • Activity:
    58.6%
  • Country: in
  • Posts: 5300
  • Topics: 1470
  • Join Date: Dec 2010
  • Online Again
#16. James Bond The Living Daylight [1987]HDrip[Hindi]Current_HD


Code: [Select]
General
Complete name                    : James Bond The Living Daylights[1987]Brrip[Dual audio][Eng Hindi]Current_HD
Format                           : Matroska
File size                        : 696 MiB
Duration                         : 2h 1mn
Overall bit rate                 : 800 Kbps
Encoded date                     : UTC 2010-03-07 07:09:21
Writing application              : mkvmerge v3.2.0 ('Beginnings') built on Feb 12 2010 16:46:17
Writing library                  : libebml v0.7.9 + libmatroska v0.8.1

Video
ID                               : 1
Format                           : AVC
Format/Info                      : Advanced Video Codec
Format profile                   : High@L2.1
Format settings, CABAC           : Yes
Format settings, ReFrames        : 3 frames
Muxing mode                      : Container profile=Unknown@2.1
Codec ID                         : V_MPEG4/ISO/AVC
Duration                         : 2h 1mn
Nominal bit rate                 : 735 Kbps
Width                            : 608 pixels
Height                           : 256 pixels
Display aspect ratio             : 2.35:1
Frame rate                       : 23.976 fps
Color space                      : YUV
Chroma subsampling               : 4:2:0
Bit depth                        : 8 bits
Scan type                        : Progressive
Bits/(Pixel*Frame)               : 0.197
Writing library                  : x264 core 80 r1376M 3feaec2
Encoding settings                : cabac=1 / ref=3 / deblock=1:0:0 / analyse=0x3:0x113 / me=hex / subme=7 / psy=1 / psy_rd=1.0:0.0 / mixed_ref=1 / me_range=16 / chroma_me=1 / trellis=0 / 8x8dct=1 / cqm=0 / deadzone=21,11 / fast_pskip=1 / chroma_qp_offset=-2 / threads=3 / sliced_threads=0 / nr=0 / decimate=1 / mbaff=0 / constrained_intra=0 / bframes=2 / b_pyramid=0 / b_adapt=1 / b_bias=0 / direct=3 / wpredb=1 / wpredp=2 / keyint=250 / keyint_min=25 / scenecut=40 / rc_lookahead=40 / rc=2pass / mbtree=1 / bitrate=735 / ratetol=1.0 / qcomp=0.60 / qpmin=10 / qpmax=51 / qpstep=4 / cplxblur=20.0 / qblur=0.5 / ip_ratio=1.40 / aq=2:1.00

Audio
ID                               : 2
Format                           : AAC
Format/Info                      : Advanced Audio Codec
Format version                   : Version 4
Format profile                   : LC
Format settings, SBR             : No
Codec ID                         : A_AAC
Duration                         : 2h 1mn
Channel(s)                       : 6 channels
Channel positions                : Front: L C R, Side: L R, LFE
Sampling rate                    : 48.0 KHz
Video delay                      : 500ms
Language                         : Hindi

Menu
00:00:00.054                     : en:00:00:00.054








____________
 MB
If you like any post, then say thanks to the uploader by posting in his topic, adding thanks and reputes to him.
Because we all want is just a little appreciation from you.

July 05, 2012, 06:34:29 PM
Reply #17
  • Head Admin
  • Legend Member
  • *****
  • Topic Author
  • Thank You: 1051
  • Reputation: 984
  • Activity:
    58.6%
  • Country: in
  • Posts: 5300
  • Topics: 1470
  • Join Date: Dec 2010
  • Online Again
Licence to Kill (1989) | m-HD | 720p | Hindi | Eng | BHATTI87



:imdb:
Code: [Select]
http://www.imdb.com/title/tt0097742/
:info:


:plot:
James Bond is on possibly his most brutal mission yet. Bond's good friend, Felix Leiter, is left near to death, by drug baron Franz Sanchez. Bond sets off on the hunt for Sanchez, but not everyone is happy. MI6 does not feel Sanchez is their problem and strips Bond of his license to kill. Bond is now more dangerous than ever. Bond gains the aide of one of Leiter friends, known as Pam Bouvier and sneaks his way into the drug factories, which Sanchez owns. Will Bond be able to keep his identity secret, or will Sanchez see Bond's true intentions?

:ss:









:note:
# The logo/watermark are on these screens only #
# The encode of the movie is logo/watermark free #




OR

OR

OR

OR

OR

OR

OR

OR


originaly posted by Mavεrick.Dudε  bro
« Last Edit: March 01, 2013, 08:35:10 AM by -==DigOshO==- »
If you like any post, then say thanks to the uploader by posting in his topic, adding thanks and reputes to him.
Because we all want is just a little appreciation from you.

July 05, 2012, 06:37:08 PM
Reply #18
  • Head Admin
  • Legend Member
  • *****
  • Topic Author
  • Thank You: 1051
  • Reputation: 984
  • Activity:
    58.6%
  • Country: in
  • Posts: 5300
  • Topics: 1470
  • Join Date: Dec 2010
  • Online Again
#18. Golden Eye (1995) [Dual.Audio] [Eng-Hindi]


Code: [Select]
Title..................: James Bond "GoldenEye" Pierce Brosnan
 Year...................: 1995
 Genre..................: Spy | Action
 Directer...............: Martin Campbell
 Run time...............: 2h 9mn 46sec
 size ..................: 871 MB
 Languages..............: English.Hindi

Video
 Format : MKV
 Duration : 2h 9mn 46sec
 Display aspect ratio : 2.25:1
 Resolution : 720*320
 Bit Rate : 939 Kbps
 Stream size : 497 MiB (58%)

Audio #1 :English
 ID : 1
 Format : MPEG 1 Layer 3
 Duration : 2h 9mn 46sec
 Bit rate mode : Constant
 Bit rate : 128 Kbps
 Channel(s) : 2 channels
 Channel positions : Front: L R
 Sampling rate : 48.0 KHz
 Stream size : 119 MiB (14%)

Audio #2 :Hindi
 ID : 2
 Format : MPEG 1 Layer 3
 Duration : 2h 9mn 46sec
 Bit rate mode : Constant
 Bit rate : 256 Kbps
 Channel(s) : 2 channels
 Channel positions : Front: L R
 Sampling rate : 44.1 KHz
 Stream size : 238 MiB (28%)












OR Alternate Download link--





---------------------
871 MB
« Last Edit: June 03, 2013, 08:15:12 PM by ~AtomPro~ »
If you like any post, then say thanks to the uploader by posting in his topic, adding thanks and reputes to him.
Because we all want is just a little appreciation from you.

July 05, 2012, 06:39:33 PM
Reply #19
  • Head Admin
  • Legend Member
  • *****
  • Topic Author
  • Thank You: 1051
  • Reputation: 984
  • Activity:
    58.6%
  • Country: in
  • Posts: 5300
  • Topics: 1470
  • Join Date: Dec 2010
  • Online Again
#19. James Bond 007-Tomorrow Never Dies (1997) Dual.Audio[Eng-Hindi]


Code: [Select]
Format : Matroska
 Format version : Version 2
 File size : 602 MiB
 Duration : 1h 58mn
 Overall bit rate : 707 Kbps
 Encoded date : UTC 2012-02-29 13:38:38
 Writing application : mkvmerge v4.3.0 ('Escape from the Island') built on Sep 5 2010 10:30:51
 Writing library : libebml v1.0.0 + libmatroska v1.0.0


Video
 ID : 1
 Format : AVC
 Format/Info : Advanced Video Codec
 Format profile : High@L3.0
 Format settings, CABAC : Yes
 Format settings, ReFrames : 5 frames
 Muxing mode : Header stripping
 Codec ID : V_MPEG4/ISO/AVC
 Duration : 1h 58mn
 Nominal bit rate : 567 Kbps
 Width : 976 pixels
 Height : 400 pixels
 Display aspect ratio : 2.40:1
 Frame rate : 23.976 fps
 Color space : YUV
 Chroma subsampling : 4:2:0
 Bit depth : 8 bits


Audio #1
 ID : 2
 Format : AAC
 Format/Info : Advanced Audio Codec
 Format profile : HE-AAC / LC
 Codec ID : A_AAC
 Duration : 1h 58mn
 Channel(s) : 2 channels
 Channel positions : Front: L R
 Sampling rate : 48.0 KHz / 24.0 KHz
 Compression mode : Lossy
 Title : English Audio -=KSRR=-
 Language : English


Audio #2
 ID : 4
 Format : MPEG Audio
 Format version : Version 1
 Format profile : Layer 3
 Mode : Joint stereo
 Mode extension : MS Stereo
 Muxing mode : Header stripping
 Codec ID : A_MPEG/L3
 Codec ID/Hint : MP3
 Duration : 1h 58mn
 Bit rate mode : Constant
 Bit rate : 128 Kbps
 Channel(s) : 2 channels
 Sampling rate : 48.0 KHz
 Compression mode : Lossy
 Delay relative to video : 10ms
 Stream size : 109 MiB (18%)
 Title : Hindi Audio
 Language : Hindi
Video Source : Yify



















---------------------
601.7 MB

« Last Edit: January 08, 2013, 12:12:18 PM by Hυмzα kнαliÐ »
If you like any post, then say thanks to the uploader by posting in his topic, adding thanks and reputes to him.
Because we all want is just a little appreciation from you.

Tags:
 

Related Topics


ShareSpark.net - SiteMap

Basics

Statistics Center Top Keywords Search Techniques Downloading Tutorials

Rules

Basic Forum Rules Links Posting Rules Rules Regarding Abuse Topic Posting Rule

Features

Connect Profile with Facebook Dead Link Reporting System Tagging System in Topics Save Topics to Drafts

Social Links

Facebook Page Facebook Group Latest Tweets Google Plus

Important

DMCA Policy Bug Reports Advertise With Us Report to Staff


Back to top