+ ShareSpark.net »  :::: Hollywood Zone » Hollywood Movies (Pre Releases)
|- Vacation.2015.720p.HC.WEBRip.x264.AAC2.0-RARBG


Fasoos 30% Off

Vacation.2015.720p.HC.WEBRip.x264.AAC2.0-RARBG

0 Members and 1 Guest are viewing this topic.

September 19, 2015, 11:20:32 AM
  • *****************
  • Head Admin
  • Legend Member
  • *****
  • Topic Author
  • Thank You: 6239
  • Reputation: 2734
  • Activity:
    100%
  • Country: in
  • Posts: 18260
  • Topics: 10793
  • Join Date: Mar 2012
  • The Time Is Now......


Video
ID                                       : 1
Format                                   : AVC
Format/Info                              : Advanced Video Codec
Format profile                           : [email protected]
Format settings, CABAC                   : Yes
Format settings, ReFrames                : 4 frames
Codec ID                                 : avc1
Codec ID/Info                            : Advanced Video Coding
Duration                                 : 1h 34mn
Bit rate                                 : 3 500 Kbps
Width                                    : 1 280 pixels
Height                                   : 532 pixels
Display aspect ratio                     : 2.40:1
Frame rate mode                          : Constant
Frame rate                               : 25.000 fps
Color space                              : YUV
Chroma subsampling                       : 4:2:0
Bit depth                                : 8 bits
Scan type                                : Progressive
Bits/(Pixel*Frame)                       : 0.206
Stream size                              : 2.29 GiB (94%)
Title                                    : Vacation.2015.720p.HC.WEBRip.x264.AAC2.0-RARBG
Writing library                          : x264 core 146 r2555 0c21480
Encoding settings                        : cabac=1 / ref=4 / deblock=1:0:0 / analyse=0x3:0x113 / me=hex / subme=7 / psy=1 / psy_rd=1.00:0.00 / mixed_ref=1 / me_range=16 / chroma_me=1 / trellis=1 / 8x8dct=1 / cqm=0 / deadzone=21,11 / fast_pskip=1 / chroma_qp_offset=-2 / threads=12 / lookahead_threads=2 / sliced_threads=0 / nr=0 / decimate=1 / interlaced=0 / bluray_compat=0 / constrained_intra=0 / bframes=3 / b_pyramid=2 / b_adapt=1 / b_bias=0 / direct=1 / weightb=1 / open_gop=0 / weightp=2 / keyint=250 / keyint_min=25 / scenecut=40 / intra_refresh=0 / rc_lookahead=40 / rc=abr / mbtree=1 / bitrate=3500 / ratetol=1.0 / qcomp=0.60 / qpmin=0 / qpmax=69 / qpstep=4 / ip_ratio=1.40 / aq=1:1.00

Audio
ID                                       : 2
Format                                   : AAC
Format/Info                              : Advanced Audio Codec
Format profile                           : LC
Codec ID                                 : 40
Duration                                 : 1h 34mn
Bit rate mode                            : Constant
Bit rate                                 : 224 Kbps
Channel(s)                               : 2 channels
Channel positions                        : Front: L R
Sampling rate                            : 44.1 KHz
Compression mode                         : Lossy
Stream size                              : 152 MiB (6%)
Title                                    : Vacation.2015.720p.HC.WEBRip.x264.AAC2.0-RARBG



























Rest Hosts Rejected the file   :wall:

Share this topic on FacebookShare this topic on GoogleShare this topic on MySpaceShare this topic on TwitterShare this topic on Yahoo



Thanks given by:


Tags:
 

Related Topics

  Subject / Started by Replies Last post
0 Replies
519 Views
Last post March 24, 2015, 02:32:53 PM
by Snyper
0 Replies
435 Views
Last post September 19, 2015, 09:46:29 AM
by -Ð@Rk.ÐèVi£-
0 Replies
486 Views
Last post September 19, 2015, 09:47:31 AM
by -Ð@Rk.ÐèVi£-
0 Replies
439 Views
Last post September 19, 2015, 11:10:21 AM
by -Ð@Rk.ÐèVi£-
0 Replies
458 Views
Last post September 19, 2015, 11:17:15 AM
by -Ð@Rk.ÐèVi£-



Back to top