+ ShareSpark.net »  :::: Hollywood Zone » Hollywood Movies (Pre Releases)
|- Maze.Runner-The.Scorch.Trials.2015.HD-TS.XVID.AC3.HQ.Hive-CM8


Niki 25% Off

Maze.Runner-The.Scorch.Trials.2015.HD-TS.XVID.AC3.HQ.Hive-CM8

0 Members and 1 Guest are viewing this topic.

September 24, 2015, 02:17:18 AM
  • *****************
  • Head Admin
  • Legend Member
  • *****
  • Topic Author
  • Thank You: 6238
  • Reputation: 2731
  • Activity:
    100%
  • Country: in
  • Posts: 18258
  • Topics: 10793
  • Join Date: Mar 2012
  • The Time Is Now......





After having escaped the Maze, the Gladers now face a new set of challenges on the open roads of a desolate landscape filled with unimaginable obstacles.

Director: Wes Ball
Writers: T.S. Nowlin (screenplay), James Dashner (novel)
Stars: Dylan O'Brien, Kaya Scodelario, Thomas Brodie-Sangster
Genres: Action | Sci-Fi | Thriller
Country: USA
Language: English


Maze.Runner-The.Scorch.Trials.2015.HD-TS.XVID.AC3.HQ.Hive-CM8

Thx Hive

CM8 Doing It Right The First Time

Sources:

Video: 720p Private SourceCam thx xoxo

Audio: Sweet Direct Line Big Thx to S4NDM4N
thx

Notes:

first off this is not the russian or the latin source thats on the net for days, this one is good and new
the old source is dark,pixelated and had low bitrate and was done from either a 400 or 800mb file, no wonder it wasnt good.
i have worked on that old source too for days to tidy it up, pity though spent so much hours on it and now its wasted, anyhow

luckily the new one i got today beats it by far. its brighter,sharper,colours are nicer and its not zoomed in, so left and right side is a lot more to see.
the whole video itself is great.

Encode:

Fixed perspective,rgb and removed some flicker and noise in the video and added some brightness and sharpness

Audio was very nice line lipsynced to my video

Rating i would say is Video 8.5 and Audio a def 10

got very nice and will do me till retail
enjoy

Video: 720x400 @bitrate 1800 2pass
Audio: English Direct Line AC3 2.0 Stereo
Sample: yes included






General
Complete name : Maze.Runner-The.Scorch.Trials.2015.HD-TS.XVID.AC3.HQ.Hive-CM8.avi
Format : AVI
Format/Info : Audio Video Interleave
File size : 1.79 GiB
Duration : 2h 3mn
Overall bit rate : 2 068 Kbps
Writing application : Nandub v1.0rc2
Writing library : Nandub build 1853/release

Video
ID : 0
Format : MPEG-4 Visual
Format profile : Advanced [email protected]
Format settings, BVOP : 2
Format settings, QPel : Yes
Format settings, GMC : No warppoints
Format settings, Matrix : Default (H.263)
Muxing mode : Packed bitstream
Codec ID : XVID
Codec ID/Hint : XviD
Duration : 2h 3mn
Bit rate : 1 800 Kbps
Width : 720 pixels
Height : 400 pixels
Display aspect ratio : 16:9
Frame rate : 29.970 fps
Color space : YUV
Chroma subsampling : 4:2:0
Bit depth : 8 bits
Scan type : Progressive
Compression mode : Lossy
Bits/(Pixel*Frame) : 0.209
Stream size : 1.56 GiB (87%)
Writing library : XviD 1.2.1 (UTC 2008-12-04)

Audio
ID : 1
Format : AC-3
Format/Info : Audio Coding 3
Mode extension : CM (complete main)
Format settings, Endianness : Big
Codec ID : 2000
Duration : 2h 3mn
Bit rate mode : Constant
Bit rate : 256 Kbps
Channel(s) : 2 channels
Channel positions : Front: L R
Sampling rate : 48.0 KHz
Bit depth : 16 bits
Compression mode : Lossy
Stream size : 227 MiB (12%)
Alignment : Split accross interleaves
Interleave, duration : 33 ms (1.00 video frame)
Interleave, preload duration : 500 ms


























Share this topic on FacebookShare this topic on GoogleShare this topic on MySpaceShare this topic on TwitterShare this topic on Yahoo

« Last Edit: September 24, 2015, 02:22:31 AM by -Ð@Rk.ÐèVi£- »



Tags:
 

Related Topics




Back to top