+ ShareSpark.net »  :::: Hollywood Zone » Hollywood Movies (Pre Releases)
|- Paranormal.Activity-The.Ghost.Dimension.2015.HD-TS.XVID.AC3.Hive-CM8


100% Bill Offer

Paranormal.Activity-The.Ghost.Dimension.2015.HD-TS.XVID.AC3.Hive-CM8

0 Members and 1 Guest are viewing this topic.

October 28, 2015, 04:24:25 AM
  • *****************
  • Head Admin
  • Legend Member
  • *****
  • Topic Author
  • Thank You: 6651
  • Reputation: 2914
  • Activity:
    77%
  • Country: in
  • Posts: 18775
  • Topics: 10946
  • Join Date: Mar 2012
  • The Time Is Now......






The Ghost Dimension, follows a new family, The Fleeges - father Ryan (Chris J. Murray), mother Emily (Brit Shaw) and their young daughter Leila (Ivy George) - Who move into a house and discover a video camera and a box of tapes in the garage. When they look through the camera's lens, they begin to see the paranormal activity happening around them - including the re-emergence of young Kristi and Katie.

Director: Gregory Plotkin
Writers: Jason Pagan (screenplay), Andrew Deutschman (screenplay)
Stars: Chris J. Murray, Brit Shaw, Ivy George
Genres: Horror
Country: USA
Language: English | German


Paranormal.Activity-The.Ghost.Dimension.2015.HD-TS.XVID.AC3.Hive-CM8

Thx Hive

CM8 Doing It Right The First Time

Sources:
Video: Latino HDCam unmarked
Audio: Sweet Line Big Thx to S4NDM4N

Encode:
Latino Cam was already bright on daylight scenes, dark scenes were just ok
raised brightness and contrast so that you can see more in the dark, and added slightly more sharpness.
looks better now.

Audio as usually nice line from S4NDM4N, lipsynced to my video, video is complete btw.

got nice and will do me till retail
enjoy

Video: 720x384 @bitrate 1500 2pass
Audio: English AC3 2.0 Stereo Line
Sample: yes included






General
Complete name : Paranormal.Activity-The.Ghost.Dimension.2015.HD-TS.XVID.AC3.Hive-CM8.avi
Format : AVI
Format/Info : Audio Video Interleave
File size : 1.02 GiB
Duration : 1h 22mn
Overall bit rate : 1 772 Kbps
Writing application : Nandub v1.0rc2
Writing library : Nandub build 1853/release

Video
ID : 0
Format : MPEG-4 Visual
Format profile : Advanced [email protected]
Format settings, BVOP : 2
Format settings, QPel : Yes
Format settings, GMC : No warppoints
Format settings, Matrix : Default (H.263)
Muxing mode : Packed bitstream
Codec ID : XVID
Codec ID/Hint : XviD
Duration : 1h 22mn
Bit rate : 1 504 Kbps
Width : 720 pixels
Height : 384 pixels
Display aspect ratio : 1.85:1
Frame rate : 29.970 fps
Color space : YUV
Chroma subsampling : 4:2:0
Bit depth : 8 bits
Scan type : Progressive
Compression mode : Lossy
Bits/(Pixel*Frame) : 0.182
Stream size : 889 MiB (85%)
Writing library : XviD 1.2.1 (UTC 2008-12-04)

Audio
ID : 1
Format : AC-3
Format/Info : Audio Coding 3
Mode extension : CM (complete main)
Format settings, Endianness : Big
Codec ID : 2000
Duration : 1h 22mn
Bit rate mode : Constant
Bit rate : 256 Kbps
Channel(s) : 2 channels
Channel positions : Front: L R
Sampling rate : 48.0 KHz
Bit depth : 16 bits
Compression mode : Lossy
Stream size : 151 MiB (14%)
Alignment : Split accross interleaves
Interleave, duration : 33 ms (1.00 video frame)
Interleave, preload duration : 500 ms










Share this topic on FacebookShare this topic on GoogleShare this topic on MySpaceShare this topic on TwitterShare this topic on Yahoo



Thanks given by:


Tags:
 

Related Topics





Back to top