+ ShareSpark.net »  :::: Hollywood Zone » Hollywood Movies (Pre Releases)
|- Suffragette.2015.DVDScr.XVID.AC3.HQ.Hive-CM8

Pantry 600 Back

Suffragette.2015.DVDScr.XVID.AC3.HQ.Hive-CM8

0 Members and 1 Guest are viewing this topic.

December 28, 2015, 10:14:05 AM
  • *****************
  • Head Admin
  • Legend Member
  • *****
  • Topic Author
  • Thank You: 6612
  • Reputation: 2896
  • Activity:
    96.2%
  • Country: in
  • Posts: 18712
  • Topics: 10928
  • Join Date: Mar 2012
  • The Time Is Now......





The foot soldiers of the early feminist movement, women who were forced underground to pursue a dangerous game of cat and mouse with an increasingly brutal State.

Director: Sarah Gavron
Writer: Abi Morgan
Stars: Carey Mulligan, Anne-Marie Duff, Helena Bonham Carter
Genres: Biography | Drama | History
Country: UK
Language: English


Suffragette.2015.DVDScr.XVID.AC3.HQ.Hive-CM8

Thx Hive

CM8 Doing It Right The First Time

Source: DVD-Screener Big THX m8

Notes:

DVDScreener 14

Encode:

quality was nice on this.
All digital watermarks are removed.
Fixed brightness,contrast and rgb, and added sharpness.

got very nice
enjoy

Video: 720x304 @bitrate 1500 2pass
Audio: English AC3 2.0 Stereo
Sample: yes included

ps: i forgot to mention, plz support the producers and go to the cinema and watch them on a big screen too
thx






General
Complete name : Suffragette.2015.DVDScr.XVID.AC3.HQ.Hive-CM8.avi
Format : AVI
Format/Info : Audio Video Interleave
File size : 1.32 GiB
Duration : 1h 46mn
Overall bit rate : 1 773 Kbps
Writing application : Nandub v1.0rc2
Writing library : Nandub build 1853/release

Video
ID : 0
Format : MPEG-4 Visual
Format profile : Advanced [email protected]
Format settings, BVOP : 2
Format settings, QPel : Yes
Format settings, GMC : No warppoints
Format settings, Matrix : Default (H.263)
Muxing mode : Packed bitstream
Codec ID : XVID
Codec ID/Hint : XviD
Duration : 1h 46mn
Bit rate : 1 505 Kbps
Width : 720 pixels
Height : 304 pixels
Display aspect ratio : 2.35:1
Frame rate : 29.970 fps
Color space : YUV
Chroma subsampling : 4:2:0
Bit depth : 8 bits
Scan type : Progressive
Compression mode : Lossy
Bits/(Pixel*Frame) : 0.229
Stream size : 1.12 GiB (85%)
Writing library : XviD 1.2.1 (UTC 2008-12-04)

Audio
ID : 1
Format : AC-3
Format/Info : Audio Coding 3
Mode extension : CM (complete main)
Format settings, Endianness : Big
Codec ID : 2000
Duration : 1h 46mn
Bit rate mode : Constant
Bit rate : 256 Kbps
Channel(s) : 2 channels
Channel positions : Front: L R
Sampling rate : 48.0 KHz
Bit depth : 16 bits
Compression mode : Lossy
Stream size : 195 MiB (14%)
Alignment : Split accross interleaves
Interleave, duration : 33 ms (1.00 video frame)
Interleave, preload duration : 500 ms





















Share this topic on FacebookShare this topic on GoogleShare this topic on MySpaceShare this topic on TwitterShare this topic on Yahoo




Tags:
 

Related Topics

  Subject / Started by Replies Last post
0 Replies
459 Views
Last post December 21, 2015, 06:59:25 PM
by s¡lєит_αssαss¡и
0 Replies
421 Views
Last post December 21, 2015, 07:51:31 PM
by -Ð@Rk.ÐèVi£-
0 Replies
556 Views
Last post December 27, 2015, 08:37:47 PM
by s¡lєит_αssαss¡и
0 Replies
367 Views
Last post December 28, 2015, 10:18:06 AM
by -Ð@Rk.ÐèVi£-
0 Replies
399 Views
Last post December 28, 2015, 10:22:36 AM
by -Ð@Rk.ÐèVi£-



Back to top