+ ShareSpark.net »  :::: Dubbed Zone (Dubbed English in Hindi) » English Movies Dubbed in Hindi
|- Vanilla Sky [2001] 720p WEB-HDRip x264 Dual audio [Eng 5.1+Hindi 2.0]...Hon3y


Amazon Pantry Offer

Vanilla Sky [2001] 720p WEB-HDRip x264 Dual audio [Eng 5.1+Hindi 2.0]...Hon3y

0 Members and 1 Guest are viewing this topic.

January 03, 2016, 11:51:15 AM
  • Begginer
  • **
  • Topic Author
  • Thank You: 26
  • Reputation: 7
  • Activity:
    0%
  • Posts: 75
  • Topics: 56
  • Join Date: Sep 2013
  • ShareSpark Member
Vanilla Sky [2001] 720p WEB-HDRip x264 Dual audio [Eng 5.1+Hindi 2.0]...Hon3y



Media Info:

Vanilla Sky [2001] 720p WEB-HDRip x264 Dual audio [Eng 5.1+Hindi 2.0]...Hon3y.mkv

Format                         : Matroska
Format version                 : Version 4 / Version 2
File size                      : 1.44 GiB
Duration                       : 2h 16mn
Overall bit rate               : 1 510 Kbps
Movie name                     : Encoded By [email protected] @Hon3yHD
Encoded date                   : UTC 2015-01-31 05:55:36
Writing application            : mkvmerge v7.2.0 ('On Every Street') 64bit built on Sep 13 2014 15:52:10
Writing library                : libebml v1.3.0 + libmatroska v1.4.1

Video
ID                             : 1
Format                         : AVC
Format/Info                    : Advanced Video Codec
Format profile                 : [email protected]
Format settings, CABAC         : Yes
Format settings, ReFrames      : 9 frames
Codec ID                       : V_MPEG4/ISO/AVC
Duration                       : 2h 16mn
Bit rate                       : 1 134 Kbps
Width                          : 1 280 pixels
Height                         : 720 pixels
Display aspect ratio           : 16:9
Frame rate mode                : Constant
Frame rate                     : 23.976 (24000/1001) fps
Color space                    : YUV
Chroma subsampling             : 4:2:0
Bit depth                      : 8 bits
Scan type                      : Progressive
Bits/(Pixel*Frame)             : 0.051
Stream size                    : 1.08 GiB (75%)
Title                          : [email protected] @Hon3yHD
Writing library                : x264 core 142 r2431 ac76440
Language                       : English
Default                        : Yes
Forced                         : No
Color range                    : Full
Color primaries                : Generic film
Transfer characteristics       : BT.709
Matrix coefficients            : BT.709

Audio #1
ID                             : 2
Format                         : AC-3
Format/Info                    : Audio Coding 3
Mode extension                 : CM (complete main)
Format settings, Endianness    : Big
Codec ID                       : A_AC3
Duration                       : 2h 9mn
Bit rate mode                  : Constant
Bit rate                       : 192 Kbps
Channel(s)                     : 6 channels
Channel positions              : Front: L C R, Side: L R, LFE
Sampling rate                  : 48.0 KHz
Frame rate                     : 31.250 fps (1536 spf)
Compression mode               : Lossy
Stream size                    : 178 MiB (12%)
Title                          : [email protected] @Hon3yHD
Language                       : English
Default                        : Yes
Forced                         : No

Audio #2
ID                             : 3
Format                         : AC-3
Format/Info                    : Audio Coding 3
Mode extension                 : CM (complete main)
Format settings, Endianness    : Big
Codec ID                       : A_AC3
Duration                       : 2h 15mn
Bit rate mode                  : Constant
Bit rate                       : 192 Kbps
Channel(s)                     : 2 channels
Channel positions              : Front: L R
Sampling rate                  : 48.0 KHz
Frame rate                     : 31.250 fps (1536 spf)
Compression mode               : Lossy
Stream size                    : 187 MiB (13%)
Title                          : [email protected] @Hon3yHD
Language                       : Hindi
Default                        : No
Forced                         : No

Download Link:












Share this topic on FacebookShare this topic on GoogleShare this topic on MySpaceShare this topic on TwitterShare this topic on Yahoo

« Last Edit: January 04, 2016, 10:28:38 PM by mahimapu »


Thanks given by:


January 03, 2016, 01:19:23 PM
Reply #1
  • Devoted Member
  • **
  • Thank You: 5
  • Reputation: 2
  • Activity:
    0.4%
  • Country: in
  • Posts: 153
  • Topics: 42
  • Join Date: Jan 2013
  • ShareSpark Member

January 04, 2016, 02:41:05 AM
Reply #2
  • Hot Member
  • ***
  • Thank You: 0
  • Reputation: 3
  • Activity:
    2.6%
  • Posts: 582
  • Topics: 0
  • Join Date: Sep 2012
  • ShareSpark Member

Tags: dual audio 
 

Related Topics





Back to top