+ ShareSpark.net »  :::: Bollywood Zone » Regional Movies » Punjabi Movies
|- Shareek (2015) - 720p - DVD-Rip - Punjabi - x264 - AC3 - 5.1 - Mafiaking - M2Tv


100% Bill Offer

Shareek (2015) - 720p - DVD-Rip - Punjabi - x264 - AC3 - 5.1 - Mafiaking - M2Tv

0 Members and 1 Guest are viewing this topic.

January 10, 2016, 02:16:54 PM
  • Elite Moderator
  • Elite Forces
  • ****
  • Topic Author
  • Thank You: 251
  • Reputation: 173
  • Activity:
    0%
  • Country: in
  • Posts: 1342
  • Topics: 410
  • Join Date: Feb 2013
  • •?((¯°·._.• β๏$$ •._.·°¯))؟•
  • Expertises:
  • Bollywood Movies
  • Dubbed Movies
Shareek (2015) - 720p - DVD-Rip - Punjabi - x264 - AC3 - 5.1 - Mafiaking - M2Tv




Code: [Select]
Ratings: 7.0/10

GENRE: Drama, Family


General
Unique ID : 180503682713716526571060229328369450806 (0x87CBBEA8A90963A2A42265BC07517F36)
Complete name : Shareek (2015) - 720p - DVD-Rip - Punjabi - x264 - AC3 - 5.1 - Mafiaking - M2Tv.mkv
Format : Matroska
Format version : Version 4 / Version 2
File size : 1.08 GiB
Duration : 2h 13mn
Overall bit rate : 1 150 Kbps
Movie name : Shareek (2015) - 720p - DVD-Rip - Punjabi - x264 - AC3 - 5.1 - Mafiaking - M2Tv
Encoded date : UTC 2016-01-09 19:41:42
Writing application : mkvmerge v7.6.0 ('Garden of Dreams') 64bit built on Feb 8 2015 13:04:34
Writing library : libebml v1.3.1 + libmatroska v1.4.2

Video
ID : 1
Format : AVC
Format/Info : Advanced Video Codec
Format profile : [email protected]
Format settings, CABAC : Yes
Format settings, ReFrames : 4 frames
Codec ID : V_MPEG4/ISO/AVC
Duration : 2h 13mn
Bit rate : 925 Kbps
Width : 1 280 pixels
Height : 544 pixels
Display aspect ratio : 2.35:1
Frame rate mode : Constant
Frame rate : 29.970 fps
Color space : YUV
Chroma subsampling : 4:2:0
Bit depth : 8 bits
Scan type : Progressive
Bits/(Pixel*Frame) : 0.044
Stream size : 865 MiB (79%)
Title : Mafiaking
Language : Panjabi
Default : Yes
Forced : No

Audio
ID : 2
Format : AC-3
Format/Info : Audio Coding 3
Mode extension : CM (complete main)
Format settings, Endianness : Big
Codec ID : A_AC3
Duration : 2h 13mn
Bit rate mode : Constant
Bit rate : 224 Kbps
Channel(s) : 6 channels
Channel positions : Front: L C R, Side: L R, LFE
Sampling rate : 48.0 KHz
Compression mode : Lossy
Stream size : 215 MiB (19%)
Title : Mafiaking
Language : Panjabi
Default : Yes
Forced : No









:download:















Share this topic on FacebookShare this topic on GoogleShare this topic on MySpaceShare this topic on TwitterShare this topic on Yahoo

« Last Edit: January 10, 2016, 02:46:41 PM by ρяαηєєтgυρтα »



Tags:
 

Related Topics





Back to top