+ ShareSpark.net »  :::: Bollywood Zone » Indian TV Shows
|- Zee Cine Awards 2016 (Main Event) 720p HDTV Rip (Lovepreet1) DUS


Zee Cine Awards 2016 (Main Event) 720p HDTV Rip (Lovepreet1) DUS

0 Members and 1 Guest are viewing this topic.

March 06, 2016, 08:17:07 AM
  • Admin
  • Legend Member
  • ****
  • Topic Author
  • Thank You: 2521
  • Reputation: 664
  • Activity:
    12.2%
  • Country: in
  • Posts: 3808
  • Topics: 2283
  • Join Date: Dec 2013
  • ShareSpark Member

Zee Cine Awards 2016 (Main Event) 720p HDTV Rip (Lovepreet1) DUS

    
   



Poster






















Episode telecast date: 5th March 2016



General
Complete name                            : Zee Cine Awards 2016 (Main Event) 720p HDTV (Lovepreet1) DUS.mp4
Format                                   : MPEG-4
Format profile                           : Base Media
Codec ID                                 : isom (isom/iso2/avc1/mp41)
File size                                : 1.87 GiB
Duration                                 : 3h 53mn
Overall bit rate                         : 1 146 Kbps
Writing application                      : Lavf57.25.101

Video
ID                                       : 1
Format                                   : AVC
Format/Info                              : Advanced Video Codec
Format profile                           : [email protected]
Format settings, CABAC                   : Yes
Format settings, ReFrames                : 3 frames
Format settings, GOP                     : M=1, N=75
Codec ID                                 : avc1
Codec ID/Info                            : Advanced Video Coding
Duration                                 : 3h 53mn
Bit rate                                 : 1 012 Kbps
Width                                    : 1 280 pixels
Height                                   : 720 pixels
Display aspect ratio                     : 16:9
Frame rate mode                          : Variable
Frame rate                               : 25.000 fps
Minimum frame rate                       : 12.500 fps
Maximum frame rate                       : 25.000 fps
Color space                              : YUV
Chroma subsampling                       : 4:2:0
Bit depth                                : 8 bits
Scan type                                : Progressive
Bits/(Pixel*Frame)                       : 0.044
Stream size                              : 1.65 GiB (88%)

Audio
ID                                       : 2
Format                                   : AAC
Format/Info                              : Advanced Audio Codec
Format profile                           : LC
Codec ID                                 : 40
Duration                                 : 3h 53mn
Bit rate mode                            : Constant
Bit rate                                 : 128 Kbps
Channel(s)                               : 2 channels
Channel positions                        : Front: L R
Sampling rate                            : 44.1 KHz
Frame rate                               : 43.066 fps (1024 spf)
Compression mode                         : Lossy
Stream size                              : 214 MiB (11%)
Default                                  : Yes




Note   :

-This is a HDTV Rip, ads are not cut. Therefore, the length is a bit long.

All Credit Goes To "DUS"







      

















Share this topic on FacebookShare this topic on GoogleShare this topic on MySpaceShare this topic on TwitterShare this topic on Yahoo

« Last Edit: March 07, 2016, 08:38:58 PM by abcxyz1 »



Thanks given by:


March 06, 2016, 08:59:14 AM
Reply #1
  • Elite Member
  • ***
  • Thank You: 0
  • Reputation: 2
  • Activity:
    0%
  • Posts: 411
  • Topics: 0
  • Join Date: May 2014
  • ShareSpark Member

March 06, 2016, 10:20:06 AM
Reply #2
  • Devoted Member
  • **
  • Thank You: 0
  • Reputation: 1
  • Activity:
    0%
  • Country: in
  • Posts: 137
  • Topics: 0
  • Join Date: Jun 2014
  • ShareSpark Member

March 07, 2016, 06:57:23 PM
Reply #3
  • Devoted Member
  • **
  • Thank You: 16
  • Reputation: 1
  • Activity:
    0%
  • Country: us
  • Posts: 136
  • Topics: 21
  • Join Date: Aug 2015
  • ShareSpark Member
please upload filefactory & multiup.org links..
THANKS
« Last Edit: March 07, 2016, 07:00:24 PM by Deepa11 »

March 07, 2016, 08:40:08 PM
Reply #4
  • Retired
  • Conqueror
  • Legend Member
  • *****
  • Thank You: 173
  • Reputation: 379
  • Activity:
    0%
  • Country: us
  • Posts: 1594
  • Topics: 177
  • Join Date: Aug 2015

March 07, 2016, 10:02:00 PM
Reply #5
  • Devoted Member
  • **
  • Thank You: 16
  • Reputation: 1
  • Activity:
    0%
  • Country: us
  • Posts: 136
  • Topics: 21
  • Join Date: Aug 2015
  • ShareSpark Member

Tags:
 

Related Topics

  Subject / Started by Replies Last post
0 Replies
1065 Views
Last post February 25, 2014, 04:40:58 PM
by Bozdar Jaan
1 Replies
2042 Views
Last post March 06, 2016, 08:43:16 AM
by yogesh.sagpariya.5
1 Replies
1309 Views
Last post April 21, 2016, 02:01:29 AM
by Admin ♥♫
0 Replies
234 Views
Last post April 01, 2019, 11:55:32 AM
by Special26
0 Replies
373 Views
Last post April 01, 2019, 07:58:40 PM
by Special26




Back to top