+ ShareSpark.net »  :::: Hollywood Zone » Hollywood Movies (Original Rips) » Small Size Hollywood Movies
|- Deadpool.2016.WEBRip.480p.x264.AAC-VYTO [400MB]


Amazon Pantry Offer

Deadpool.2016.WEBRip.480p.x264.AAC-VYTO [400MB]

0 Members and 1 Guest are viewing this topic.

April 26, 2016, 11:18:14 AM
  • Devoted Member
  • **
  • Topic Author
  • Thank You: 52
  • Reputation: 28
  • Activity:
    0%
  • Country: it
  • Posts: 163
  • Topics: 161
  • Join Date: Dec 2015
  • ShareSpark Member



Deadpool.2016.WEBRip.480p.x264.AAC-VYTO


Genre: Action, Adventure, Comedy
IMDb:



Quote
Format                                   : MPEG-4
File size                                : 401 MiB
Duration                                 : 1h 48mn
Overall bit rate                         : 516 Kbps

Video
Format                                   : AVC
Bit rate                                 : 473 Kbps
Width                                    : 720 pixels
Height                                   : 304 pixels
Display aspect ratio                     : 2.35:1
Frame rate mode                          : Constant
Frame rate                               : 23.976 fps
Bit depth                                : 8 bits
Stream size                              : 368 MiB (92%)
Writing library                          : x264

Audio
Format                                   : AAC
Bit rate mode                            : Variable
Bit rate                                 : 40.0 Kbps
Channel(s)                               : 2 channels
Channel positions                        : Front: L R
Sampling rate                            : 48.0 KHz
Stream size                              : 30.9 MiB (8%)
Language                                 : English

Subtitle                                 : Yes (English)

Screen Shots: (click on image to see in full size)









-------------------------------------------------------------------------------------


Sample
Code: [Select]
http://www33.zippyshare.com/v/PGBuOQLN/file.html
Download from Uploaded.net
Code: [Select]
http://ul.to/flzp1itk
Download from Userscloud.com
Code: [Select]
https://userscloud.com/cyuev0qt1qfq
Download from Uptobox.com
Code: [Select]
http://uptobox.com/3mxfdj4tmdqz
Download English Subtitle
Code: [Select]
http://www91.zippyshare.com/v/HoMf3Vjh/file.html


Share this topic on FacebookShare this topic on GoogleShare this topic on MySpaceShare this topic on TwitterShare this topic on Yahoo




Tags: deadpool 2016 web rip 480P x264 AAC 
 

Related Topics

  Subject / Started by Replies Last post
0 Replies
889 Views
Last post April 08, 2016, 02:44:16 PM
by validusvyto
0 Replies
1009 Views
Last post April 16, 2016, 10:50:44 AM
by validusvyto
0 Replies
1151 Views
Last post April 21, 2016, 12:23:07 PM
by validusvyto
0 Replies
1475 Views
Last post April 26, 2016, 01:51:33 PM
by validusvyto
0 Replies
1281 Views
Last post May 04, 2016, 12:31:16 PM
by validusvyto




Back to top