+ ShareSpark.net »  :::: Hollywood Zone » Hollywood Movies (Original Rips) » Small Size Hollywood Movies
|- The.Driftless.Area.2016.WEBRip.480p.x264.AAC-VYTO [350MB]


100% Recharge Offer

The.Driftless.Area.2016.WEBRip.480p.x264.AAC-VYTO [350MB]

0 Members and 1 Guest are viewing this topic.

April 26, 2016, 01:09:44 PM
  • Devoted Member
  • **
  • Topic Author
  • Thank You: 52
  • Reputation: 28
  • Activity:
    0%
  • Country: it
  • Posts: 163
  • Topics: 161
  • Join Date: Dec 2015
  • ShareSpark Member



The.Driftless.Area.2016.WEBRip.480p.x264.AAC-VYTO


Genre: Comedy, Drama, Mystery
IMDb:



Quote
Format                                   : MPEG-4
File size                                : 352 MiB
Duration                                 : 1h 35mn
Overall bit rate                         : 514 Kbps

Video
Format                                   : AVC
Duration                                 : 1h 35mn
Bit rate                                 : 471 Kbps
Width                                    : 720 pixels
Height                                   : 304 pixels
Display aspect ratio                     : 2.35:1
Frame rate mode                          : Constant
Frame rate                               : 23.976 (24000/1001) fps
Bit depth                                : 8 bits
Stream size                              : 322 MiB (92%)
Writing library                          : x264
Audio
Format                                   : AAC
Bit rate mode                            : Variable
Bit rate                                 : 39.9 Kbps
Channel(s)                               : 2 channels
Channel positions                        : Front: L R
Sampling rate                            : 48.0 KHz
Stream size                              : 27.3 MiB (8%)
Language                                 : English

Subtitle                                 : Yes (English)

Screen Shots: (click on image to see in full size)







-------------------------------------------------------------------------------------


Sample
Code: [Select]
http://www69.zippyshare.com/v/pCXflVQ1/file.html
Download from Uploaded.net
Code: [Select]
http://ul.to/4cg21jpj
Download from Userscloud.com
Code: [Select]
https://userscloud.com/g49bfb7va3v4
Download from Uptobox.com
Code: [Select]
http://uptobox.com/my62kqy5zh7t
Download English Subtitle
Code: [Select]
http://www36.zippyshare.com/v/GsBdPDeG/file.html


Share this topic on FacebookShare this topic on GoogleShare this topic on MySpaceShare this topic on TwitterShare this topic on Yahoo




Tags: the driftless area 2016 web rip 480P 
 

Related Topics

  Subject / Started by Replies Last post
0 Replies
831 Views
Last post March 23, 2016, 09:10:03 AM
by validusvyto
0 Replies
917 Views
Last post April 12, 2016, 08:49:56 AM
by validusvyto
0 Replies
967 Views
Last post April 23, 2016, 12:19:11 AM
by validusvyto
0 Replies
1045 Views
Last post May 04, 2016, 12:50:45 PM
by validusvyto
0 Replies
1120 Views
Last post May 04, 2016, 01:12:05 PM
by validusvyto




Back to top