+ ShareSpark.net »  :::: Bollywood Zone » Bollywood Movies (Original Rips) » Bollywood Movies (1945-2000)
|- Takkar (1995) (HD) WEB-HD Untouched 1080p Hon3yHD


Flipkart Offer

Takkar (1995) (HD) WEB-HD Untouched 1080p Hon3yHD

0 Members and 1 Guest are viewing this topic.

May 15, 2016, 10:36:08 AM
  • Begginer
  • **
  • Topic Author
  • Thank You: 57
  • Reputation: 17
  • Activity:
    0%
  • Posts: 97
  • Topics: 81
  • Join Date: Aug 2013
  • ShareSpark Member
Flipkart Offer
Takkar (1995) (HD) WEB-HD Untouched 1080p Hon3yHD
[/color]


Takkar (1995) (HD) WEB-HD Untouched 1080p Hon3yHD

 :info:

    Info
    Format : MPEG-4
    Format profile : Base Media
    Codec ID : isom (isom/iso2/avc1/mp41)
    File size : 2.23 GiB
    Duration : 2h 23mn
    Overall bit rate mode : Variable
    Overall bit rate : 2 217 Kbps

    Video
    ID : 1
    Format : AVC
    Format profile : [email protected]
    Format settings, CABAC : Yes
    Format settings, ReFrames : 3 frames
    Codec ID : avc1
    Duration : 2h 23mn
    Bit rate : 2 088 Kbps
    Width : 1 920 pixels
    Height : 1 080 pixels
    Display aspect ratio : 16:9
    Frame rate : 25.000 fps
    Color space : YUV
    Chroma subsampling : 4:2:0
    Stream size : 2.10 GiB (94%)

    Audio
    ID : 2
    Format : AAC
    Duration : 2h 23mn
    Channel(s) : 2 channels
    Channel positions : Front: L R
    Sampling rate : 44.1 KHz
    Frame rate : 43.066 fps (1024 spf)
    Compression mode : Lossy
    Stream size : 129 MiB (6%)
    Default : Yes


 :download:


Share this topic on FacebookShare this topic on GoogleShare this topic on MySpaceShare this topic on TwitterShare this topic on Yahoo




Flipkart Offer
December 28, 2016, 05:11:11 PM
Reply #1
  • Newbie
  • **
  • Thank You: 0
  • Reputation: 0
  • Activity:
    0.2%
  • Country: us
  • Posts: 2
  • Topics: 0
  • Join Date: Dec 2016
  • ShareSpark Member

Tags:
 

Related Topics

  Subject / Started by Replies Last post
0 Replies
266 Views
Last post October 15, 2014, 06:11:27 PM
by Best
0 Replies
299 Views
Last post December 24, 2015, 06:12:37 PM
by rflxn143
0 Replies
471 Views
Last post March 31, 2016, 06:30:27 PM
by black220
2 Replies
866 Views
Last post November 23, 2016, 10:42:20 AM
by gprem54
1 Replies
687 Views
Last post September 23, 2016, 09:25:15 PM
by rdx_tanvir




Back to top