+ ShareSpark.net »  :::: Bollywood Zone » Indian TV Shows
|- [ On Request ] Sa Re Ga Ma Pa 2016 [ Episode 22 {480p} Added ]


100% DTH Offer

[ On Request ] Sa Re Ga Ma Pa 2016 [ Episode 22 {480p} Added ]

0 Members and 1 Guest are viewing this topic.

June 08, 2016, 06:57:32 PM
  • Retired
  • Conqueror
  • Legend Member
  • *****
  • Topic Author
  • Thank You: 173
  • Reputation: 379
  • Activity:
    0%
  • Country: us
  • Posts: 1684
  • Topics: 177
  • Join Date: Aug 2015
Sa Re Ga Ma Pa
Episode 22




General

Format                                   : MPEG-4
File size                                 : 346 MiB
Duration                                   : 55mn 7s
Overall bit rate                       : 878 Kbps


Video
ID                                       : 1
Format                                   : AVC
Format/Info                              : Advanced Video Codec
Format profile                           : [email protected]
Format settings, CABAC                   : Yes
Format settings, ReFrames                : 2 frames
Codec ID                                 : avc1
Codec ID/Info                            : Advanced Video Coding
Duration                                 : 55mn 7s
Bit rate mode                            : Variable
Bit rate                                 : 811 Kbps
Maximum bit rate                         : 901 Kbps
Width                                    : 854 pixels
Height                                   : 480 pixels

Display aspect ratio                     : 16:9
Frame rate mode                          : Constant
Frame rate                               : 25.000 fps
Color space                              : YUV
Chroma subsampling                       : 4:2:0
Bit depth                                : 8 bits
Scan type                                : Progressive
Bits/(Pixel*Frame)                       : 0.079
Stream size                              : 320 MiB (92%)

Audio
ID                                       : 2
Format                                   : AAC
Format/Info                              : Advanced Audio Codec
Format profile                           : LC
Codec ID                                 : 40
Duration                                 : 55mn 7s
Bit rate mode                            : Constant
Bit rate                                 : 64.0 Kbps
Channel(s)                               : 2 channels
Channel positions                        : Front: L R
Sampling rate                            : 48.0 KHz
Frame rate                               : 46.875 fps (1024 spf)
Compression mode                         : Lossy
Stream size                              : 24.2 MiB (7%)







Audio is not muted in this source

No Watermark













Share this topic on FacebookShare this topic on GoogleShare this topic on MySpaceShare this topic on TwitterShare this topic on Yahoo




June 10, 2016, 08:16:41 AM
Reply #1
  • Devoted Member
  • **
  • Thank You: 2
  • Reputation: 0
  • Activity:
    0.4%
  • Country: in
  • Posts: 136
  • Topics: 2
  • Join Date: Mar 2014
  • ShareSpark Member

Tags:
 

Related Topics

  Subject / Started by Replies Last post
25 Replies
3405 Views
Last post May 29, 2016, 05:41:43 PM
by abcxyz1
6 Replies
1334 Views
Last post June 13, 2016, 10:37:48 AM
by waseemrajasaifi
3 Replies
1146 Views
Last post July 07, 2016, 04:07:06 PM
by Serecomputing
2 Replies
1104 Views
Last post July 06, 2016, 05:49:39 PM
by nikhil_shah
4 Replies
1314 Views
Last post July 22, 2016, 08:34:12 PM
by Nazar




Back to top