+ ShareSpark.net »  :::: Bollywood Zone » Indian TV Shows
|- [On Request ] Chinese Bhasad - Season - 01 - [ Completed ]


  • [On Request ] Chinese Bhasad - Season - 01 - [ Completed ] 3 1
Currently:  

[On Request ] Chinese Bhasad - Season - 01 - [ Completed ]

0 Members and 1 Guest are viewing this topic.

July 07, 2016, 08:25:13 AM
  • Retired
  • Conqueror
  • Legend Member
  • *****
  • Topic Author
  • Thank You: 173
  • Reputation: 379
  • Activity:
    0%
  • Country: us
  • Posts: 1594
  • Topics: 177
  • Join Date: Aug 2015
Chinese Bhasad

Season - 01

Episode 1





General

Format                                   : MPEG-4
File size                                   : 206 MiB
Duration                                 : 18mn 28s
Overall bit rate                         : 1559 Kbps

Video
ID                                       : 1
Format                                   : AVC
Format/Info                              : Advanced Video Codec
Format profile                           : [email protected]
Format settings, CABAC                   : Yes
Format settings, ReFrames                : 4 frames
Codec ID                                 : avc1
Codec ID/Info                            : Advanced Video Coding
Duration                                 : 18mn 28s
Bit rate                                 : 1 424 Kbps
Nominal bit rate                         : 1 500 Kbps
Width                                    : 1280 pixels
Height                                   : 720 pixels

Display aspect ratio                     : 16:9
Frame rate mode                          : Variable
Frame rate                               : 24.960 fps
Minimum frame rate                       : 0.556 fps
Maximum frame rate                       : 25.000 fps
Color space                              : YUV
Chroma subsampling                       : 4:2:0
Bit depth                                : 8 bits
Scan type                                : Progressive
Bits/(Pixel*Frame)                       : 0.062
Stream size                              : 188 MiB (91%)

Audio
ID                                       : 2
Format                                   : AAC
Format/Info                              : Advanced Audio Codec
Format profile                           : LC
Codec ID                                 : 40
Duration                                 : 18mn 28s
Bit rate mode                            : Variable
Bit rate                                 : 128 Kbps
Maximum bit rate                         : 131 Kbps
Channel(s)                               : 2 channels
Channel positions                        : Front: L R
Sampling rate                            : 44.1 KHz
Frame rate                               : 43.066 fps (1024 spf)
Compression mode                         : Lossy
Stream size                              : 16.9 MiB (8%)






Audio is not muted in this source
No Watermark










Share this topic on FacebookShare this topic on GoogleShare this topic on MySpaceShare this topic on TwitterShare this topic on Yahoo

« Last Edit: July 07, 2016, 05:56:44 PM by abcxyz1 »


Thanks given by:


July 07, 2016, 08:31:50 AM
Reply #1
  • Retired
  • Conqueror
  • Legend Member
  • *****
  • Topic Author
  • Thank You: 173
  • Reputation: 379
  • Activity:
    0%
  • Country: us
  • Posts: 1594
  • Topics: 177
  • Join Date: Aug 2015
Chinese Bhasad

Season - 01

Episode 2





General

Format                                   : MPEG-4
File size                                   : 239 MiB
Duration                                 : 21mn 14s
Overall bit rate                         : 1576 Kbps

Video
ID                                       : 1
Format                                   : AVC
Format/Info                              : Advanced Video Codec
Format profile                           : [email protected]
Format settings, CABAC                   : Yes
Format settings, ReFrames                : 4 frames
Codec ID                                 : avc1
Codec ID/Info                            : Advanced Video Coding
Duration                                 : 21mn 14s
Bit rate                                 : 1 500 Kbps
Width                                    : 1280 pixels
Height                                   : 720 pixels

Display aspect ratio                     : 16:9
Frame rate mode                          : Constant
Frame rate                               : 25.000 fps
Color space                              : YUV
Chroma subsampling                       : 4:2:0
Bit depth                                : 8 bits
Scan type                                : Progressive
Bits/(Pixel*Frame)                       : 0.065
Stream size                              : 219 MiB (91%)

Audio
ID                                       : 2
Format                                   : AAC
Format/Info                              : Advanced Audio Codec
Format profile                           : LC
Codec ID                                 : 40
Duration                                 : 21mn 14s
Bit rate mode                            : Variable
Bit rate                                 : 128 Kbps
Maximum bit rate                         : 131 Kbps
Channel(s)                               : 2 channels
Channel positions                        : Front: L R
Sampling rate                            : 44.1 KHz
Frame rate                               : 43.066 fps (1024 spf)
Compression mode                         : Lossy
Stream size                              : 19.4 MiB (8%)






Audio is not muted in this source
No Watermark











July 07, 2016, 08:38:16 AM
Reply #2
  • Retired
  • Conqueror
  • Legend Member
  • *****
  • Topic Author
  • Thank You: 173
  • Reputation: 379
  • Activity:
    0%
  • Country: us
  • Posts: 1594
  • Topics: 177
  • Join Date: Aug 2015
Chinese Bhasad

Season - 01

Episode 3





General

Format                                   : MPEG-4
File size                                   : 301 MiB
Duration                                 : 26mn 40s
Overall bit rate                         : 1577 Kbps

Video
ID                                       : 1
Format                                   : AVC
Format/Info                              : Advanced Video Codec
Format profile                           : [email protected]
Format settings, CABAC                   : Yes
Format settings, ReFrames                : 4 frames
Codec ID                                 : avc1
Codec ID/Info                            : Advanced Video Coding
Duration                                 : 26mn 40s
Bit rate                                 : 1 500 Kbps
Width                                    : 1280 pixels
Height                                   : 720 pixels

Display aspect ratio                     : 16:9
Frame rate mode                          : Constant
Frame rate                               : 25.000 fps
Color space                              : YUV
Chroma subsampling                       : 4:2:0
Bit depth                                : 8 bits
Scan type                                : Progressive
Bits/(Pixel*Frame)                       : 0.065
Stream size                              : 275 MiB (91%)

Audio
ID                                       : 2
Format                                   : AAC
Format/Info                              : Advanced Audio Codec
Format profile                           : LC
Codec ID                                 : 40
Duration                                 : 26mn 40s
Bit rate mode                            : Variable
Bit rate                                 : 128 Kbps
Maximum bit rate                         : 131 Kbps
Channel(s)                               : 2 channels
Channel positions                        : Front: L R
Sampling rate                            : 44.1 KHz
Frame rate                               : 43.066 fps (1024 spf)
Compression mode                         : Lossy
Stream size                              : 24.4 MiB (8%)






Audio is not muted in this source
No Watermark











July 07, 2016, 08:43:27 AM
Reply #3
  • Retired
  • Conqueror
  • Legend Member
  • *****
  • Topic Author
  • Thank You: 173
  • Reputation: 379
  • Activity:
    0%
  • Country: us
  • Posts: 1594
  • Topics: 177
  • Join Date: Aug 2015
Chinese Bhasad

Season - 01

Episode 4





General

Format                                   : MPEG-4
File size                                   : 226 MiB
Duration                                 : 20mn 11s
Overall bit rate                         : 1563 Kbps

Video
ID                                       : 1
Format                                   : AVC
Format/Info                              : Advanced Video Codec
Format profile                           : [email protected]
Format settings, CABAC                   : Yes
Format settings, ReFrames                : 4 frames
Codec ID                                 : avc1
Codec ID/Info                            : Advanced Video Coding
Duration                                 : 20mn 11s
Bit rate                                 : 1 428 Kbps
Nominal bit rate                         : 1 500 Kbps
Width                                    : 1280 pixels
Height                                   : 720 pixels

Display aspect ratio                     : 16:9
Frame rate mode                          : Constant
Frame rate                               : 25.000 fps
Color space                              : YUV
Chroma subsampling                       : 4:2:0
Bit depth                                : 8 bits
Scan type                                : Progressive
Bits/(Pixel*Frame)                       : 0.062
Stream size                              : 206 MiB (91%)

Audio
ID                                       : 2
Format                                   : AAC
Format/Info                              : Advanced Audio Codec
Format profile                           : LC
Codec ID                                 : 40
Duration                                 : 20mn 11s
Bit rate mode                            : Variable
Bit rate                                 : 128 Kbps
Maximum bit rate                         : 131 Kbps
Channel(s)                               : 2 channels
Channel positions                        : Front: L R
Sampling rate                            : 44.1 KHz
Frame rate                               : 43.066 fps (1024 spf)
Compression mode                         : Lossy
Stream size                              : 18.5 MiB (8%)






Audio is not muted in this source
No Watermark











July 07, 2016, 08:50:47 AM
Reply #4
  • Retired
  • Conqueror
  • Legend Member
  • *****
  • Topic Author
  • Thank You: 173
  • Reputation: 379
  • Activity:
    0%
  • Country: us
  • Posts: 1594
  • Topics: 177
  • Join Date: Aug 2015
Chinese Bhasad

Season - 01

Episode 5





General

Format                                   : MPEG-4
File size                                   : 196 MiB
Duration                                 : 17mn 34s
Overall bit rate                         : 1558 Kbps

Video
ID                                       : 1
Format                                   : AVC
Format/Info                              : Advanced Video Codec
Format profile                           : [email protected]
Format settings, CABAC                   : Yes
Format settings, ReFrames                : 4 frames
Codec ID                                 : avc1
Codec ID/Info                            : Advanced Video Coding
Duration                                 : 17mn 34s
Bit rate                                 : 1 424 Kbps
Nominal bit rate                         : 1 500 Kbps
Width                                    : 1280 pixels
Height                                   : 720 pixels

Display aspect ratio                     : 16:9
Frame rate mode                          : Variable
Frame rate                               : 24.874 fps
Minimum frame rate                       : 0.187 fps
Maximum frame rate                       : 25.000 fps
Color space                              : YUV
Chroma subsampling                       : 4:2:0
Bit depth                                : 8 bits
Scan type                                : Progressive
Bits/(Pixel*Frame)                       : 0.062
Stream size                              : 179 MiB (91%)

Audio
ID                                       : 2
Format                                   : AAC
Format/Info                              : Advanced Audio Codec
Format profile                           : LC
Codec ID                                 : 40
Duration                                 : 17mn 34s
Bit rate mode                            : Variable
Bit rate                                 : 127 Kbps
Maximum bit rate                         : 131 Kbps
Channel(s)                               : 2 channels
Channel positions                        : Front: L R
Sampling rate                            : 44.1 KHz
Frame rate                               : 43.066 fps (1024 spf)
Compression mode                         : Lossy
Stream size                              : 16.0 MiB (8%)






Audio is not muted in this source
No Watermark











July 07, 2016, 09:19:56 AM
Reply #5
  • Elite Member
  • ***
  • Thank You: 0
  • Reputation: 2
  • Activity:
    0%
  • Posts: 411
  • Topics: 0
  • Join Date: May 2014
  • ShareSpark Member

July 07, 2016, 05:47:35 PM
Reply #6
  • Retired
  • Conqueror
  • Legend Member
  • *****
  • Topic Author
  • Thank You: 173
  • Reputation: 379
  • Activity:
    0%
  • Country: us
  • Posts: 1594
  • Topics: 177
  • Join Date: Aug 2015
Chinese Bhasad

Season - 01

Episode 6





General

Format                                   : MPEG-4
File size                                   : 194 MiB
Duration                                 : 17mn 20s
Overall bit rate                         : 1567 Kbps

Video
ID                                       : 1
Format                                   : AVC
Format/Info                              : Advanced Video Codec
Format profile                           : [email protected]
Format settings, CABAC                   : Yes
Format settings, ReFrames                : 4 frames
Codec ID                                 : avc1
Codec ID/Info                            : Advanced Video Coding
Duration                                 : 17mn 20s
Bit rate                                 : 1 500 Kbps
Width                                    : 1280 pixels
Height                                   : 720 pixels

Display aspect ratio                     : 16:9
Frame rate mode                          : Variable
Frame rate                               : 24.906 fps
Minimum frame rate                       : 0.253 fps
Maximum frame rate                       : 25.000 fps
Color space                              : YUV
Chroma subsampling                       : 4:2:0
Bit depth                                : 8 bits
Scan type                                : Progressive
Bits/(Pixel*Frame)                       : 0.065
Stream size                              : 178 MiB (91%)

Audio
ID                                       : 2
Format                                   : AAC
Format/Info                              : Advanced Audio Codec
Format profile                           : LC
Codec ID                                 : 40
Duration                                 : 17mn 20s
Bit rate mode                            : Variable
Bit rate                                 : 128 Kbps
Maximum bit rate                         : 131 Kbps
Channel(s)                               : 2 channels
Channel positions                        : Front: L R
Sampling rate                            : 44.1 KHz
Frame rate                               : 43.066 fps (1024 spf)
Compression mode                         : Lossy
Stream size                              : 15.8 MiB (8%)






Audio is not muted in this source
No Watermark










July 07, 2016, 05:54:09 PM
Reply #7
  • Retired
  • Conqueror
  • Legend Member
  • *****
  • Topic Author
  • Thank You: 173
  • Reputation: 379
  • Activity:
    0%
  • Country: us
  • Posts: 1594
  • Topics: 177
  • Join Date: Aug 2015
Chinese Bhasad

Season - 01

Episode 7





General

Format                                   : MPEG-4
File size                                   : 275 MiB
Duration                                 : 24mn 18s
Overall bit rate                         : 1581 Kbps

Video
ID                                       : 1
Format                                   : AVC
Format/Info                              : Advanced Video Codec
Format profile                           : [email protected]
Format settings, CABAC                   : Yes
Format settings, ReFrames                : 4 frames
Codec ID                                 : avc1
Codec ID/Info                            : Advanced Video Coding
Duration                                 : 24mn 18s
Bit rate                                 : 1 500 Kbps
Width                                    : 1280 pixels
Height                                   : 720 pixels

Display aspect ratio                     : 16:9
Frame rate mode                          : Constant
Frame rate                               : 25.000 fps
Color space                              : YUV
Chroma subsampling                       : 4:2:0
Bit depth                                : 8 bits
Scan type                                : Progressive
Bits/(Pixel*Frame)                       : 0.065
Stream size                              : 251 MiB (91%)

Audio
ID                                       : 2
Format                                   : AAC
Format/Info                              : Advanced Audio Codec
Format profile                           : LC
Codec ID                                 : 40
Duration                                 : 24mn 18s
Bit rate mode                            : Variable
Bit rate                                 : 128 Kbps
Maximum bit rate                         : 131 Kbps
Channel(s)                               : 2 channels
Channel positions                        : Front: L R
Sampling rate                            : 44.1 KHz
Frame rate                               : 43.066 fps (1024 spf)
Compression mode                         : Lossy
Stream size                              : 22.3 MiB (8%)






Audio is not muted in this source
No Watermark










July 10, 2016, 07:01:32 PM
Reply #8
  • Begginer
  • **
  • Thank You: 3
  • Reputation: 2
  • Activity:
    0%
  • Posts: 97
  • Topics: 5
  • Join Date: Oct 2014
  • ShareSpark Member

July 10, 2016, 07:02:31 PM
Reply #9
  • Begginer
  • **
  • Thank You: 3
  • Reputation: 2
  • Activity:
    0%
  • Posts: 97
  • Topics: 5
  • Join Date: Oct 2014
  • ShareSpark Member

July 10, 2016, 07:37:56 PM
Reply #10
  • Retired
  • Conqueror
  • Legend Member
  • *****
  • Topic Author
  • Thank You: 173
  • Reputation: 379
  • Activity:
    0%
  • Country: us
  • Posts: 1594
  • Topics: 177
  • Join Date: Aug 2015
nxt episode???

7th episode is the grand finale episode boss..

1st season completed...

November 08, 2017, 09:37:30 PM
Reply #11
  • Newbie
  • **
  • Thank You: 0
  • Reputation: 0
  • Activity:
    0%
  • Country: in
  • Posts: 1
  • Topics: 0
  • Join Date: Nov 2017
  • ShareSpark Member
All the links are dead. Can you please update them.

Tags:
 

Related Topics

  Subject / Started by Replies Last post
10 Replies
1425 Views
Last post June 04, 2012, 12:12:44 PM
by MEJ
0 Replies
525 Views
Last post May 31, 2016, 12:42:24 AM
by 1020
4 Replies
724 Views
Last post July 18, 2016, 01:53:11 PM
by YOGESH97
0 Replies
856 Views
Last post July 16, 2016, 09:01:17 AM
by abcxyz1
1 Replies
987 Views
Last post July 18, 2017, 01:20:20 PM
by imcyberdon




Back to top