+ ShareSpark.net »  :::: Bollywood Zone » Bollywood Movies (Original Rips)
|- Sarbjit (2016) ~2 CD x264 DvDrip AC3 5.1 ESub -DDR

Pantry 600 Back

Sarbjit (2016) ~2 CD x264 DvDrip AC3 5.1 ESub -DDR

0 Members and 1 Guest are viewing this topic.

July 13, 2016, 01:06:43 PM
  • *****************
  • Head Admin
  • Legend Member
  • *****
  • Topic Author
  • Thank You: 6418
  • Reputation: 2851
  • Activity:
    100%
  • Country: in
  • Posts: 18510
  • Topics: 10857
  • Join Date: Mar 2012
  • The Time Is Now......


- BollywooD MoviE -
**- Sarbjit -**
- 2016 -
** 1/3 DvDrip / x264 / AC3 5.1 **
English subtitle(s)






General
Source = DVD9 @ DDR

Format : Matroska
File size : 1.44 GiB
Duration : 2h 12mn
Overall bit rate : 1 559 Kbps


Video
Format : AVC
Format profile : [email protected]
Duration : 2h 12mn
Bit rate : 1 108 Kbps
Width : 720 pixels
Height : 304 pixels
Display aspect ratio : 2.35:1
Frame rate mode : Constant
Frame rate : 23.976 (24000/1001) fps
Color space : YUV
Chroma subsampling : 4:2:0
Bit depth : 8 bits
Scan type : Progressive
Bits/(Pixel*Frame) : 0.211
Stream size : 1.02 GiB (71%)
Default : Yes
Forced : No
Color primaries : BT.601 NTSC

Audio
Format : AC-3
Duration : 2h 12mn
Bit rate mode : Constant
Bit rate : 448 Kbps
Channel(s) : 6 channels
Channel positions : Front: L C R, Side: L R, LFE
Sampling rate : 48.0 KHz
Frame rate : 31.250 fps (1536 spf)
Compression mode : Lossy
Stream size : 423 MiB (29%)

Language : Hindi

Chapters: Yes
Sample: YES - included












































Share this topic on FacebookShare this topic on GoogleShare this topic on MySpaceShare this topic on TwitterShare this topic on Yahoo



Thanks given by:


Tags:
 

Related Topics




Back to top